<?xml version="1.0" standalone="no"?>
<!DOCTYPE svg PUBLIC "-//W3C//DTD SVG 1.1//EN" "http://www.w3.org/Graphics/SVG/1.1/DTD/svg11.dtd" >
<!--
2013-9-30: Created.
-->
<svg>
<metadata>
Created by iconfont
</metadata>
<defs>

<font id="iconfont" horiz-adv-x="1024" >
  <font-face
    font-family="iconfont"
    font-weight="500"
    font-stretch="normal"
    units-per-em="1024"
    ascent="896"
    descent="-128"
  />
    <missing-glyph />
    
    <glyph glyph-name="x" unicode="x" horiz-adv-x="1001"
d="M281 543q-27 -1 -53 -1h-83q-18 0 -36.5 -6t-32.5 -18.5t-23 -32t-9 -45.5v-76h912v41q0 16 -0.5 30t-0.5 18q0 13 -5 29t-17 29.5t-31.5 22.5t-49.5 9h-133v-97h-438v97zM955 310v-52q0 -23 0.5 -52t0.5 -58t-10.5 -47.5t-26 -30t-33 -16t-31.5 -4.5q-14 -1 -29.5 -0.5
t-29.5 0.5h-32l-45 128h-439l-44 -128h-29h-34q-20 0 -45 1q-25 0 -41 9.5t-25.5 23t-13.5 29.5t-4 30v167h911zM163 247q-12 0 -21 -8.5t-9 -21.5t9 -21.5t21 -8.5q13 0 22 8.5t9 21.5t-9 21.5t-22 8.5zM316 123q-8 -26 -14 -48q-5 -19 -10.5 -37t-7.5 -25t-3 -15t1 -14.5
t9.5 -10.5t21.5 -4h37h67h81h80h64h36q23 0 34 12t2 38q-5 13 -9.5 30.5t-9.5 34.5q-5 19 -11 39h-368zM336 498v228q0 11 2.5 23t10 21.5t20.5 15.5t34 6h188q31 0 51.5 -14.5t20.5 -52.5v-227h-327z" />
    

    
    <glyph glyph-name="fanhui" unicode="&#58882;" d="M898.95046667 67.40383335000001c-9.42 0-17.6757 6.6355-19.5745 16.0251-0.2668 1.2601-13.3605 61.0206-69.1789 119.7338-71.0877 74.7763-181.0936 115.9104-319.0088 119.511v-162.43786713c0-7.5129-4.2123-14.3892-10.9041-17.8029-6.6907-3.4127-14.7326-2.7881-20.8147 1.6219L76.29246667 421.83253335c-5.1797 3.7545-8.2487 9.7624-8.2557 16.16-0.007 6.3967 3.0491 12.4116 8.2208 16.177L459.43446667 733.21633335c6.0791 4.426 14.128 5.0676 20.8297 1.6569 6.7027-3.4097 10.924-10.293 10.924-17.8129v-172.4790592c24.6843-0.9094 67.7468-4.5709 117.668-17.8189 79.4594-21.0877 145.4324-57.8917 196.0901-109.3888 77.9573-79.2513 116.3139-190.3849 114.0044-330.313-0.1679-10.2121-8.0099-18.6544-18.1814-19.5747C900.15966667 67.43073334999997 899.55106667 67.40383335000001 898.95046667 67.40383335000001zM471.20096667 362.90543334999995c88.5746 0 167.1135-13.9465 233.4333-41.4509 53.7468-22.2899 99.6105-53.4568 136.3142-92.6342 12.0513-12.8633 22.3078-25.7276 31.0252-38.1491-13.3045 81.0081-45.2642 147.5749-95.5261 198.6723-108.1751 109.9704-268.3481 115.5417-299.3573 115.5417-3.3079 0-5.1247-0.065-5.1427-0.065-5.4315-0.1939-10.7042 1.8188-14.6107 5.5852-3.9065 3.7674-6.1231 8.9599-6.1231 14.3862V677.77996653L122.02636667 438.05053335l329.1873-238.6382V342.91900225999996C451.21366667 353.95653335 460.16196667 362.90543334999995 471.20096667 362.90543334999995z"  horiz-adv-x="1000" />

    
    <glyph glyph-name="weibo" unicode="&#58915;" d="M933.875 515.25000001c-16.875 0-28.125 11.25-28.125 28.125 0 95.625-73.125 168.75-168.75 168.75-16.875 0-28.125 11.25-28.125 28.125 0 16.875 11.25 28.125 28.125 28.125 123.75 0 230.625-101.25 230.625-230.625C962 526.50000001 945.125 515.25000001 933.875 515.25000001zM793.25 515.25000001c-16.875 0-28.125 11.25-28.125 28.125 0 16.875-11.25 28.125-28.125 28.125-16.875 0-28.125 11.25-28.125 28.125s11.25 28.125 28.125 28.125c50.625 0 90-39.375 90-90C821.375 526.50000001 810.125 515.25000001 793.25 515.25000001zM422-2.249999989999992c-174.375 0-354.375 90-354.375 241.875 0 73.125 45 163.125 123.75 247.5 78.75 78.75 163.125 129.375 230.625 129.375 28.125 0 50.625-5.625 67.5-28.125 11.25-11.25 28.125-39.375 22.5-84.375 33.75 11.25 61.875 16.875 90 16.875 50.625 0 78.75-22.5 90-39.375 16.875-22.5 16.875-56.25 5.625-90 61.875-22.5 101.25-73.125 101.25-135C798.875 132.75000001 647-2.249999989999992 422-2.249999989999992zM416.375 554.62500001c-45 0-123.75-45-185.625-112.5-67.5-73.125-106.875-146.25-106.875-202.5 0-90 112.5-185.625 298.125-185.625 196.875 0 320.625 112.5 320.625 196.875 0 50.625-50.625 73.125-73.125 78.75-5.625 0-22.5 5.625-33.75 22.5-5.625 11.25-5.625 22.5 0 33.75 11.25 22.5 11.25 39.375 5.625 50.625-11.25 11.25-28.125 11.25-39.375 11.25-28.125 0-61.875-5.625-95.625-22.5-5.625 0-16.875-5.625-22.5-5.625-16.875 0-28.125 5.625-28.125 11.25-5.625 5.625-11.25 16.875-5.625 33.75 5.625 28.125 5.625 50.625 0 61.875C438.875 549.00000001 427.625 554.62500001 416.375 554.62500001z"  horiz-adv-x="1024" />

    
    <glyph glyph-name="tubiao210" unicode="&#58944;" d="M768.111034-64.551972c-54.20713 0-110.731135 17.816616-141.181072 27.446389-59.085464 18.881928-198.890123 111.419853-321.690711 228.216416-140.553755 133.615406-205.455971 299.497205-226.902427 364.651166-27.699158 84.534263-13.06927 123.175136-2.313806 151.438162l2.62593 6.875924c14.134583 39.14027 41.014033 66.589728 95.790148 98.040506 22.946696 13.253474 43.515113 19.693449 62.837085 19.693449 24.694586 0 40.576037-10.440271 50.080961-16.756419 20.881565-11.503537 87.907242-68.339666 112.922139-127.86415 33.137268-79.471725-1.001865-120.301554-12.25775-130.927052-5.313261-5.004207-10.127124-9.877425-14.633981-14.505038-10.25095-10.443341-19.506175-19.636141-29.509473-26.699339-1.24747-1.190162-3.060856-4.940759-1.750961-22.323472 5.624361-16.753349 73.151483-94.725859 106.106593-128.052447 132.926688-135.927166 165.628006-146.430885 168.938561-147.182027 20.075161-4.565188 30.078459 0.873945 33.392083 4.438292l4.312419 5.125987c7.878812 9.696291 22.633549 27.765676 39.390992 41.769269 17.507562 14.505038 42.89189 17.566917 61.148548 17.566917 9.130376 0 40.331455-0.997771 58.024245-13.565598 2.248312-1.560617 7.003844-4.129239 13.131695-7.500171 26.631798-14.823301 76.149914-42.26969 105.164083-77.22239 42.766017-51.396996 27.263208-127.865173 4.940759-150.685996-2.191004-2.313806-3.814045-4.37382-5.815728-6.878994-7.940214-9.878449-18.761172-23.381622-60.401499-61.272374C845.704902-53.175332 811.316071-64.551972 768.111034-64.551972zM237.277203 772.227225c-5.815728 0-16.195621-2.001683-32.953064-11.629409-52.769315-30.388535-63.273034-49.58668-69.526758-66.717648l-2.874605-7.814341c-8.815182-23.195371-17.945558-47.206356 3.187752-111.794402 20.008643-60.774 80.654724-215.776509 211.392455-340.075289 121.550047-115.614587 253.728663-200.27063 298.557765-214.528015 27.261161-8.626885 78.095312-24.699703 123.049263-24.699703 27.824007 0 48.707618 6.192323 62.086965 18.32113 38.137381 34.705048 47.643329 46.582109 53.961524 54.39952 3.186728 3.998249 5.936484 7.312897 9.623633 11.125919 3.566393 6.065427 12.75817 46.269986-8.061993 71.283859-21.884453 26.383123-65.030135 50.331683-88.157964 63.147161-8.757875 4.876288-15.322699 8.627908-18.637346 11.002093-1.001865 0.253792-10.442317 2.568622-23.509541 2.568622-14.255339 0-21.510928-2.816274-23.008097-3.817115-12.128807-10.127124-24.509359-25.382281-31.135585-33.512839l-6.193346-7.252519c-21.817935-23.886136-52.830717-31.511156-91.22189-22.82287-13.507266 3.063926-49.26944 11.254861-195.3268 160.565468-7.753963 7.944307-122.802634 124.738823-125.987316 168.320454-2.129602 27.948856-0.315193 56.461581 26.946991 75.469382 7.12767 5.004207 13.628022 12.003958 21.13331 19.631024 5.063562 5.128033 10.377846 10.506789 16.254975 16.130126 8.38128 7.878812 12.87995 29.51152-1.748914 64.77839-17.759308 42.390446-71.654314 89.786123-82.280835 95.914998-2.503127 1.312965-5.315307 3.124304-8.38128 5.124963C247.592625 769.847924 243.716155 772.227225 237.277203 772.227225z"  horiz-adv-x="1025" />

    
    <glyph glyph-name="qq" unicode="&#58947;" d="M174.93333312 501.33333375C170.66666656 488.53333312 177.06666688 480 174.93333312 433.06666688 174.93333312 420.26666625 119.46666687 362.66666625000005 96.00000031 300.79999969000005 74.66666656 241.06666687999996 70.4 179.20000030999995 104.53333344 153.60000000000002 138.66666688 127.99999968999998 170.66666656 234.66666655999995 172.80000031 219.73333313 174.93333312 213.33333374999995 177.06666688 206.93333343999996 179.19999969 198.40000031 189.86666656 168.53333343999998 209.06666656 136.53333375 234.66666687 106.66666686999997 241.06666625 100.26666655999998 202.66666625 89.59999969 179.19999969 51.19999969000003 155.73333313 12.79999969000005 185.6-57.60000000000002 298.66666625-57.60000000000002 443.73333313-57.60000000000002 475.73333375-6.400000309999996 480.00000031-6.400000309999996L503.46666688-6.400000309999996C518.40000031-6.400000309999996 512-8.53333312999996 524.79999969-6.400000309999996 531.2-6.400000309999996 601.59999969-68.26666687 699.73333344-57.60000000000002 866.13333313-40.53333375 840.53333375 14.933333439999956 827.73333313 51.19999969000003 814.93333344 87.46666688000005 765.86666656 104.53333312999996 768.00000031 106.66666686999997 808.53333312 151.46666625 814.93333344 177.06666656000004 827.73333313 217.60000031000004 834.13333344 234.66666655999995 872.53333344 125.86666688000003 902.40000031 151.46666625 915.2 162.13333311999997 938.66666656 204.79999969000005 915.2 298.66666688 889.59999969 392.53333312 842.66666656 411.73333313 842.66666656 430.93333312 844.80000031 467.20000031 842.66666656 492.79999969 842.66666656 499.2 834.13333344 531.19999969 814.93333344 524.80000031 814.93333344 531.19999969 814.93333344 714.6666665600001 676.26666687 864 505.59999969 864 334.93333344 864 196.26666687 714.6666665600001 196.26666687 531.19999969 198.39999969 518.4 185.6 529.0666668700001 174.93333312 501.33333375L174.93333312 501.33333375Z"  horiz-adv-x="1024" />

    
    <glyph glyph-name="anzhuo" unicode="&#59075;" d="M789.8409793 279.50131289C789.8409793 248.90280614999995 814.75339942 223.29496553 845.22918448 223.29496553 876.15494756 223.29496553 900.61738877 248.90280614999995 900.61738877 279.50131289 900.61738877 279.50131289 900.61738877 496.14528047 900.61738877 496.14528047 900.61738877 527.19376435 876.15494756 551.8607420000001 845.22918448 551.8607420000001 814.75339942 551.8607420000001 789.8409793 527.19376435 789.8409793 496.14528047 789.8409793 496.14528047 789.8409793 279.50131289 789.8409793 279.50131289 789.8409793 279.50131289 789.8409793 279.50131289 789.8409793 279.50131289ZM591.85064638 679.8181303700001C591.85064638 694.46286973 604.28640342 706.32592705 619.05386357 706.32592705 634.31220958 706.32592705 646.7479666 694.46286973 646.7479666 679.8181303700001 646.7479666 664.7643199199999 634.31220958 652.86035567 619.05386357 652.86035567 604.28640342 652.86035567 591.85064638 664.7643199199999 591.85064638 679.8181303700001 591.85064638 679.8181303700001 591.85064638 679.8181303700001 591.85064638 679.8181303700001ZM381.38365039 679.8181303700001C381.38365039 694.46286973 393.36942852 706.32592705 408.13688955 706.32592705 423.39523555 706.32592705 435.38101367 694.46286973 435.38101367 679.8181303700001 435.38101367 664.7643199199999 423.39523555 652.86035567 408.13688955 652.86035567 393.36942852 652.86035567 381.38365039 664.7643199199999 381.38365039 679.8181303700001 381.38365039 679.8181303700001 381.38365039 679.8181303700001 381.38365039 679.8181303700001ZM267.37557998 153.38474268000004C267.37557998 129.61772198000006 286.31556494 110.43229453000004 310.77800703 110.43229453000004 310.77800703 110.43229453000004 359.70289033 110.43229453000004 359.70289033 110.43229453000004 359.70289033 110.43229453000004 359.70289033-10.243631540000024 359.70289033-10.243631540000024 359.70289033-40.39215937999995 383.67444747-66 415.09109551-66 445.07599473-66 470.43839287-40.39215937999995 470.43839287-10.243631540000024 470.43839287-10.243631540000024 470.43839287 110.43229453000004 470.43839287 110.43229453000004 470.43839287 110.43229453000004 556.30238223 110.43229453000004 556.30238223 110.43229453000004 556.30238223 110.43229453000004 556.30238223-10.243631540000024 556.30238223-10.243631540000024 556.30238223-40.39215937999995 579.82396133-66 611.24060938-66 642.16637158-66 666.62881367-40.39215937999995 666.62881367-10.243631540000024 666.62881367-10.243631540000024 666.62881367 110.43229453000004 666.62881367 110.43229453000004 666.62881367 110.43229453000004 715.55369786 110.43229453000004 715.55369786 110.43229453000004 739.975233 110.43229453000004 758.91521709 129.61772198000006 758.91521709 153.38474268000004 758.91521709 153.38474268000004 758.91521709 550.51080791 758.91521709 550.51080791 758.91521709 550.51080791 267.37557998 550.51080791 267.37557998 550.51080791 267.37557998 550.51080791 267.37557998 153.38474268000004 267.37557998 153.38474268000004 267.37557998 153.38474268000004 267.37557998 153.38474268000004 267.37557998 153.38474268000004ZM758.01526104 585.2409298800001C750.61107705 660.18272578 700.74532988 722.81148545 628.7488455 755.70078926 628.7488455 755.70078926 673.99209072 821.02941709 673.99209072 821.02941709 676.9783083 825.32466182 676.32379473 830.64258427 672.60124971 832.48340333 668.91961074 834.73329346 664.78799463 833.38335937 661.51542675 829.74262822 661.51542675 829.74262822 613.98138447 762.08229551 613.98138447 762.08229551 582.15566533 773.4953748 548.44822021 780.81774404 512 780.81774404 475.55177979 780.81774404 440.90347167 773.4953748 409.52773057 762.08229551 409.52773057 762.08229551 362.93455127 829.74262822 362.93455127 829.74262822 359.70289033 833.38335937 355.53036729 835.67415732 351.84872832 832.48340333 348.16709023 830.19260625 347.0216917 825.32466182 350.00790928 821.02941709 350.00790928 821.02941709 395.70113252 755.70078926 395.70113252 755.70078926 323.70464815 721.87062247 272.93894492 660.6327038100001 266.47562393 585.2409298800001 266.47562393 585.2409298800001 758.01526104 585.2409298800001 758.01526104 585.2409298800001 758.01526104 585.2409298800001 758.01526104 585.2409298800001 758.01526104 585.2409298800001ZM123.38261123 279.50131289C123.38261123 248.90280614999995 147.39507442 223.29496553 178.77081552 223.29496553 208.75571562 223.29496553 234.1590207 248.90280614999995 234.1590207 279.50131289 234.1590207 279.50131289 234.1590207 496.14528047 234.1590207 496.14528047 234.1590207 527.19376435 208.75571562 551.8607420000001 178.77081552 551.8607420000001 147.39507442 551.8607420000001 123.38261123 527.19376435 123.38261123 496.14528047 123.38261123 496.14528047 123.38261123 279.50131289 123.38261123 279.50131289 123.38261123 279.50131289 123.38261123 279.50131289 123.38261123 279.50131289Z"  horiz-adv-x="1024" />

    
    <glyph glyph-name="back" unicode="&#59007;" d="M135.527832 457.261342l300.736689-287.799016L436.264521 343.842063c91.085599 0 322.979295-1.999542 322.979295-239.269694 0-124.241776-88.557007-227.895635-206.296689-251.862513C742.102397-121.761699 888.472168 37.8906 888.472168 233.111012c0 362.684638-389.476868 365.740234-452.207647 365.740234L436.264521 747.290145 135.527832 457.261342z"  horiz-adv-x="1024" />

    
    <glyph glyph-name="dianhua" unicode="&#58979;" d="M106.142435 191.94333400000005c0 52.968375 35.292807 121.371278 64.913429 169.420621 39.64492901 64.338331 94.500281 133.65504601 154.452721 195.18951801l0.216941 0.22205699 19.543102 19.536962c61.522192 59.948347 130.844024 114.795513 195.197704 154.453744 48.049343 29.608342 116.438942 64.907289 169.413458 64.907289 56.69730301 0 116.866684-40.538275 140.108015-57.96825 18.13400899-13.598716 77.30362-61.112869 77.30362-101.487416 0-16.58063-10.850116-34.431184-35.18536-57.891502-21.519106-20.75879-48.264237-40.671305-66.906829-53.723575-25.040303-17.528212-51.255361-33.73942899-73.825402-45.650713-36.531008-19.286252-52.193733-21.51399-60.803831-21.51399-17.37471599 0-32.444946 9.071609-44.78499599 26.962072-8.126075 11.779278-14.240329 25.925463-20.16015501 39.59171699-3.979638 9.229199-10.357905 23.952528-14.82975299 29.57150301-8.303106-1.963725-28.34353501-10.529821-62.33981401-33.675984-31.664164-21.570271-65.98176-49.465598-91.866291-74.671677-25.190729-25.869181-53.087079-60.180638-74.66144401-91.863221-23.136953-33.977859-31.713282-54.02442701-33.67598399-62.33265 5.62306799-4.465708 20.348444-10.837836 29.563316-14.82566 13.680581-5.918803 27.820626-12.033058 39.600927-20.16527201 17.888416-12.334933 26.959002-27.399023 26.959002-44.77169299 0-8.611122-2.232854-24.273846-21.508873-60.818157-11.916401-22.561855-28.119431-48.77896-45.655829-73.813123-13.045107-18.649755-32.964786-45.393863-53.715389-66.911946-23.468504-24.336268-41.315988-35.180244-57.895595-35.180244-40.37249901 0-87.883583 59.162448-101.485369 77.29748C146.681734 75.07562700000005 106.142435 135.24500799999998 106.142435 191.94333400000005L106.142435 191.94333400000005 106.142435 191.94333400000005 106.142435 191.94333400000005zM106.142435 191.94333400000005"  horiz-adv-x="1024" />

    
    <glyph glyph-name="01" unicode="&#58936;" d="M818.14748223 526.0299035200001c-137.78748018 17.10550283-303.01535566 5.70123457-393.09558135-5.70123457-100.67774062-5.70213369-196.07246279-17.10730107-344.43947021 5.70123457-9.92567021 0-15.89672197-6.42704239-15.89672198-17.10460284l0-403.30545907c0-5.69313984 5.29740878-17.09830722 15.89672198-17.09830724 52.98847383-11.41236211 105.97604854-11.41236211 148.36700742-11.4123621 68.90048526 0 132.48737315 5.71382578 190.77505488 17.10730107 100.67594151 11.40336826 271.20392402 22.81393213 398.39298926 0 8.99210303 0 15.89582285 7.08179854 15.89582285 17.10370371L834.04330508 508.92530068C834.04330508 520.32866894 823.44399102 526.0299035200001 818.14748223 526.0299035200001L818.14748223 526.0299035200001zM802.24896113 128.43557285999998L802.24896113 128.43557285999998c-121.88805997 22.80943477-287.11593545 11.40246914-387.79457519-1e-8-95.37853359-11.40516738-190.75706631-22.81573125-317.94433418-5.71022842L96.51005176 491.81799961c143.06780039-22.8067374 238.46342167-11.40426826 333.84195527 0 84.78101865 11.40336826 250.00889414 22.80853565 371.89785323 5.69313984L802.24986026 128.43557285999998zM885.30494961 600.20441338c-132.47028545 17.10550283-227.84971816 16.48402383-317.9272456 5.07975557-100.67863974-11.41326211-276.07322197-32.64156914-424.59402569-5.07975557-5.23085362 0.96504609-13.82632559-1.69894776-15.8805334-11.82248437-2.05420693-10.11274365 5.59150927-15.74922217 13.23812461-17.2260211 148.34991885-28.61230078 326.55779385-5.78667656 427.23643359 5.60949698 84.78191777 11.41236211 174.87563467 6.33260654 302.04761133-5.07076172l-5.78128008-388.13994141c0-5.71382578 5.29830791-17.10730107 15.89582286-17.10730108s15.89942021 5.69403984 15.89942021 17.10730108l5.78128008 399.54241055C899.99378984 590.65738652 900.13139667 598.4398095700001 885.30494961 600.20441338zM954.90156289 683.69660567c-281.88688096 19.09315459-497.74053164-44.26798623-744.74906045-9.29519825-17.12169141 3.68570127-27.35675244-18.89888643-6.19499971-26.63454199 210.29541943-40.42399219 492.78758994 30.05222432 731.49114903 9.28710351l0-394.25129736c0.89939004-6.66987803 7.07730117-13.31727099 13.27679824-13.317271 6.17611289 0 12.35582315 6.64739297 12.35582315 13.317271l0 407.56766924C961.08127315 677.0375206 961.08127315 683.69660567 954.90156289 683.69660567zM654.7660543 442.97121768l96.11873174 0c6.62760615 0 13.25521318 7.13216425 13.25521318 14.26342939 0 7.12317041-6.62760615 14.25533467-13.25521318 14.25533467L654.7660543 471.48998174c-6.62940528 0-13.25701143-7.13216425-13.25701143-14.25533467C641.50904287 450.10248281 648.13664903 442.97121768 654.7660543 442.97121768zM246.15149521 176.07447392999995L144.81899844 176.07447392999995c-6.62760615 0-13.25521318-7.13126513-13.25521318-14.2634294 0-7.13216425 6.62760615-14.26432852 13.25521318-14.26432851l101.33249677 0c6.62760615 0 13.25701143 7.13306338 13.25701143 14.26432851C259.40940664 168.94410790999996 252.78000136 176.07447392999995 246.15149521 176.07447392999995zM393.94918848 235.92619393999996L445.85029971 235.92619393999996 445.85029971 193.40392383000005 467.21621357 193.40392383000005 467.21621357 235.92619393999996 519.3250833 235.92619393999996 519.3250833 260.01726035 467.21621357 260.01726035 467.21621357 286.21559765999996 519.3250833 286.21559765999996 519.3250833 310.30306670000004 482.52743281 310.30306670000004 528.16339092 402.78826113 497.30171504 402.78826113 456.91369825 315.62385879 412.59084981 402.78826113 383.12682559 402.78826113 431.11109287 310.30306670000004 393.94918848 310.30306670000004 393.94918848 286.21559765999996 445.85029971 286.21559765999996 445.85029971 260.01726035 393.94918848 260.01726035Z"  horiz-adv-x="1024" />

    
    <glyph glyph-name="weixin2" unicode="&#58910;" d="M500.4125 530.728125c23.146875 0 38.615625 15.496875 38.615625 38.5875 0 23.34375-15.440625 38.446875-38.615625 38.446875s-46.434375-15.103125-46.434375-38.446875C454.00625 546.225 477.265625 530.728125 500.4125 530.728125zM284.440625 607.7625c-23.146875 0-46.546875-15.103125-46.546875-38.446875 0-23.090625 23.4-38.5875 46.546875-38.5875 23.0625 0 38.503125 15.496875 38.503125 38.5875C322.915625 592.659375 307.503125 607.7625 284.440625 607.7625zM962 283.70624999999995c0 122.0625-113.23125 226.06875-252.225 236.896875 0.196875 1.51875 0.28125 3.09375-0.05625 4.66875-27.871875 129.9375-167.596875 227.896875-325.040625 227.896875C206.759375 753.16875 62 629.109375 62 476.615625c0-81.815625 41.765625-155.53125 120.909375-213.665625l-27.590625-82.940625c-1.771875-5.4-0.16875-11.334375 4.134375-15.075 2.615625-2.25 5.90625-3.43125 9.225-3.43125 2.1375 0 4.303125 0.50625 6.3 1.490625L278.5625 214.828125l12.76875-2.5875c31.89375-6.553125 59.428125-12.234375 93.346875-12.234375 9.984375 0 20.109375 0.45 30.0375 1.29375 4.021875 0.3375 7.425 2.3625 9.73125 5.2875 37.35-93.459375 140.2875-160.93125 261.421875-160.93125 31.021875 0 62.4375 7.48125 90.61875 14.540625l79.846875-43.65c2.109375-1.153125 4.44375-1.74375 6.75-1.74375 3.15 0 6.3 1.06875 8.83125 3.121875 4.44375 3.6 6.271875 9.534375 4.6125 14.9625l-20.390625 67.809375C924.509375 154.72500000000002 962 219.35625000000005 962 283.70624999999995zM412.325 229.34062500000005c-9.140625-0.7875-18.421875-1.18125-27.61875-1.18125-31.05 0-57.31875 5.371875-87.69375 11.64375L279.35 243.375c-3.0375 0.646875-6.24375 0.225-9.028125-1.209375l-77.596875-38.840625 20.165625 60.58125c1.96875 5.934375-0.196875 12.403125-5.2875 15.975C129.640625 334.21875 90.125 400.425 90.125 476.615625c0 136.96875 132.13125 248.428125 294.553125 248.428125 143.578125 0 270.703125-87.35625 296.94375-203.540625-150.553125-1.96875-272.3625-107.803125-272.3625-237.796875 0-18.9 2.86875-37.209375 7.70625-54.871875C415.503125 229.20000000000005 413.95625 229.48125000000005 412.325 229.34062500000005zM831.44375 117.20624999999995c-4.696875-3.54375-6.69375-9.646875-5.00625-15.271875l13.303125-44.240625-54.590625 29.86875c-2.08125 1.153125-4.415625 1.74375-6.75 1.74375-1.153125 0-2.30625-0.140625-3.43125-0.45-29.278125-7.396875-59.56875-15.01875-89.071875-15.01875-137.025 0-248.484375 94.1625-248.484375 209.896875 0 115.734375 111.459375 209.86875 248.484375 209.86875 134.409375 0 247.978125-96.103125 247.978125-209.86875C933.875 226.02187500000002 897.509375 166.875 831.44375 117.20624999999995zM600.7625 384.028125c-15.440625 0-30.88125-15.553125-30.88125-30.965625 0-15.525 15.440625-30.853125 30.88125-30.853125 23.203125 0 38.53125 15.328125 38.53125 30.853125C639.29375 368.50312499999995 623.965625 384.028125 600.7625 384.028125zM770.4125 384.028125c-15.215625 0-30.65625-15.553125-30.65625-30.965625 0-15.525 15.440625-30.853125 30.65625-30.853125 23.11875 0 38.728125 15.328125 38.728125 30.853125C809.140625 368.50312499999995 793.559375 384.028125 770.4125 384.028125z"  horiz-adv-x="1024" />

    
    <glyph glyph-name="weixin" unicode="&#59013;" d="M685.4 458.1c116.3 0 200.2-73.6 222.9-146.3 11.4-36.4 18.3-106-63.4-162.9l-2.5-1.7c-18.9-13-27.4-26.4-30-40.2l-2.3 1.2-15.3 8-16.7-4.4-20.5-5.4c-23.8-6.3-48.3-9.5-73-9.5-121.9 0-224.7 77.5-229.2 172.9-4.1 87.4 71.5 164.7 179.7 183.8C652 456.6 668.9 458.1 685.4 458.1M685.4 502.9c-18.8 0-38.2-1.6-58-5.1-131-23.1-221.9-119.4-216.7-230.1 5.7-123.9 132-215.6 273.9-215.6 27.8 0 56.2 3.5 84.5 11l20.3 5.3 42.8-22.3c22.4-11.8 41.3-20.6 43.7-20.6 0.1 0 0.2 0 0.3 0.1 0.5 1.3-4.1 17.3-10.2 35.6-13.7 41-14 38 4.4 50.8C1062.2 245.4 920.5 502.9 685.4 502.9L685.4 502.9zM300.4 607.4c28-18.4 29.7-58 2.7-75-43.7-27.7-94.7 21-65.4 62.5C250.7 613.5 281.7 619.6 300.4 607.4zM525.5 607.4c46.1-30.1 11.5-99.5-40.1-80.3-37.3 13.8-41.7 63.6-6.9 81.4C492.3 615.6 513.7 615.1 525.5 607.4zM622.2 378.4c11.5-7.4 17.6-26.1 12.6-39.6-10.4-29-55.2-31.1-67.3-3.2C553.8 367.7 591.7 397.5 622.2 378.4zM805.6 375.2c18.1-16.8 15.1-45.2-6-55.8-32.4-16-66.5 16-49.7 46.5C760.9 385.6 789.2 390.3 805.6 375.2zM711.7 520.4l-5.2 17.6c-35.7 120.8-171.6 204.5-318.2 204.5-21.5 0-43.2-1.8-64.9-5.5C59 691.1-29.2 401.8 181.2 269.3c11.5-7.2 11.5-6.4-5.8-56.4l-14.8-42.8 53.3 27.7 53.3 27.7 28.3-6.6c29.7-7.2 67.6-12.2 92.8-12.2l15.1 0-5.2 19.4c-2.4 8.6-4 17.1-5.2 25.6l-45.7 3.1c-14.1 1.9-28.8 4.6-41.5 7.7l-28.3 6.7-16.2 3.8-14.7-7.6-12.8-6.7c0.8 19.1-6.3 34.8-28.6 48.7C130.7 354 96.9 425.6 112.3 503.6 131.2 598.8 217 673 331 692.7c18.8 3.2 38 4.9 57.2 4.9 112.8 0 214.9-54.6 259.2-134.3l17.3-43.8C673.3 520.1 711.7 520.4 711.7 520.4z"  horiz-adv-x="1024" />

    
    <glyph glyph-name="goumai" unicode="&#59081;" d="M237.358431 611.535203l131.472334-375.310851-27.569916 19.554358L890.249275 255.77871c16.136515 0 29.212322-13.0799 29.212322-29.213345 0-16.129352-13.075807-29.205159-29.212322-29.205159L341.259826 197.360206c-12.409634 0-23.465434 7.836479-27.566846 19.549242L109.05016 801.1037l27.567869-19.553335L77.586564 781.550365c-16.129352 0-29.207206 13.074783-29.207206 29.212322 0 16.129352 13.077853 29.207206 29.207206 29.207206l59.032488 0c12.409634 0 23.466458-7.842619 27.566846-19.555381l52.728922-150.525272 710.724017 0c18.48705 0 32.326243-16.962324 28.612665-35.077913l-46.633087-227.389894c-2.547009-12.408611-12.796444-21.75549-25.382087-23.160489l-431.515944-48.065715c-16.036231-1.786693-30.482245 9.761318-32.266891 25.797549-1.783623 16.030092 9.764388 30.475082 25.798573 32.257681l410.798087 47.145763c0 0 20.75879 96.119151 35.926234 170.074513C893.311007 613.099838 362.038058 611.850381 237.358431 611.535203L237.358431 611.535203zM407.438061 77.627241c23.362081 0 42.36897-19.004843 42.36897-42.3659 0-23.360034-19.006889-42.364877-42.36897-42.364877-23.360034 0-42.363853 19.004843-42.363853 42.364877C365.073184 58.622398 384.078027 77.627241 407.438061 77.627241M407.438061 133.405615c-54.202483 0-98.142228-43.941791-98.142228-98.144274 0-54.207599 43.939745-98.143251 98.142228-98.143251s98.147344 43.936675 98.147344 98.143251C505.584382 89.463824 461.640544 133.405615 407.438061 133.405615L407.438061 133.405615zM816.372707 77.627241c23.357987 0 42.360783-19.004843 42.360783-42.3659 0-23.360034-19.002796-42.364877-42.360783-42.364877-23.360034 0-42.364877 19.004843-42.364877 42.364877C774.007831 58.622398 793.012673 77.627241 816.372707 77.627241M816.372707 133.405615c-54.206576 0-98.143251-43.941791-98.143251-98.144274 0-54.207599 43.937698-98.143251 98.143251-98.143251 54.200436 0 98.139158 43.936675 98.139158 98.143251C914.512888 89.463824 870.573143 133.405615 816.372707 133.405615L816.372707 133.405615zM816.372707-62.88191"  horiz-adv-x="1024" />

    
    <glyph glyph-name="iconset0263" unicode="&#59042;" d="M576 320c-12.8 0-21.333333-8.533333-21.333333-21.333333s8.533333-21.333333 21.333333-21.333333 21.333333 8.533333 21.333333 21.333333S588.8 320 576 320zM448 320c-12.8 0-21.333333-8.533333-21.333333-21.333333s8.533333-21.333333 21.333333-21.333333 21.333333 8.533333 21.333333 21.333333S460.8 320 448 320zM341.333333 213.333333l-42.666667 0 0 42.666667c0 12.8-8.533333 21.333333-21.333333 21.333333s-21.333333-8.533333-21.333333-21.333333l0-42.666667-42.666667 0c-12.8 0-21.333333-8.533333-21.333333-21.333333s8.533333-21.333333 21.333333-21.333333l42.666667 0 0-42.666667c0-12.8 8.533333-21.333333 21.333333-21.333333s21.333333 8.533333 21.333333 21.333333l0 42.666667 42.666667 0c12.8 0 21.333333 8.533333 21.333333 21.333333S354.133333 213.333333 341.333333 213.333333zM746.666667 426.666667l-211.2 0c-21.333333 38.4-4.266667 57.6 27.733333 89.6 25.6 25.6 57.6 55.466667 57.6 102.4 0 119.466667-134.4 187.733333-140.8 189.866667-10.666667 4.266667-23.466667 0-27.733333-8.533333-4.266667-10.666667 0-23.466667 8.533333-27.733333 2.133333 0 115.2-59.733333 115.2-151.466667 0-29.866667-21.333333-51.2-44.8-72.533333-29.866667-27.733333-64-64-42.666667-119.466667L277.333333 428.8C147.2 426.666667 42.666667 322.133333 42.666667 192c0-130.133333 104.533333-234.666667 234.666667-234.666667 72.533333 0 138.666667 34.133333 181.333333 85.333333l106.666667 0c42.666667-51.2 108.8-85.333333 181.333333-85.333333 130.133333 0 234.666667 104.533333 234.666667 234.666667C981.333333 322.133333 876.8 426.666667 746.666667 426.666667zM746.666667 0c-66.133333 0-125.866667 34.133333-160 85.333333l-149.333333 0c-34.133333-51.2-93.866667-85.333333-160-85.333333-106.666667 0-192 85.333333-192 192s85.333333 192 192 192l469.333333 0c106.666667 0 192-85.333333 192-192S853.333333 0 746.666667 0zM704 192c-23.466667 0-42.666667-19.2-42.666667-42.666667 0-23.466667 19.2-42.666667 42.666667-42.666667s42.666667 19.2 42.666667 42.666667C746.666667 172.8 727.466667 192 704 192zM789.333333 277.333333c-23.466667 0-42.666667-19.2-42.666667-42.666667 0-23.466667 19.2-42.666667 42.666667-42.666667s42.666667 19.2 42.666667 42.666667C832 258.133333 812.8 277.333333 789.333333 277.333333z"  horiz-adv-x="1024" />

    
    <glyph glyph-name="diannaopcxianshiqi" unicode="&#59245;" d="M832 768 192 768C121.344 768 64 710.656 64 640l0-384c0-70.656 57.344-128 128-128l640 0c70.656 0 128 57.344 128 128L960 640C960 710.656 902.656 768 832 768zM896 256c0-35.328-28.608-64-64-64L192 192c-35.392 0-64 28.672-64 64L128 640c0 35.392 28.608 64 64 64l640 0c35.392 0 64-28.608 64-64L896 256zM736 0l-448 0C270.336 0 256-14.336 256-32S270.336-64 288-64l448 0c17.664 0 32 14.336 32 32S753.664 0 736 0z"  horiz-adv-x="1024" />

    
    <glyph glyph-name="jian" unicode="&#58968;" d="M848.70423211 618.59497415l-70.45731556 0c21.91203328 40.93195719 28.39599218 77.71785899 19.23764679 109.74994432-6.64928939 23.25912235-21.0946981 42.74243584-42.93687296 57.91203556-20.96778923 14.56300259-48.06093597 24.78667776-82.832607 31.2555008l-0.39003933 0.06985728c-3.70827947 0.64851285-91.42394083 15.21617237-149.39302684-40.97503574-3.45213497-3.34618397-6.70051783-6.86002631-9.77076452-10.51940636-3.07141063 3.65937891-6.31979349 7.17322126-9.77192846 10.51940636-57.96792206 56.19237205-145.68474738 41.62354859-149.3918629 40.97503574l-0.39120327-0.06985728c-34.76934315-6.46882304-61.86481778-16.69249821-82.832607-31.2555008-21.84101091-15.16959971-36.28758357-34.65407829-42.93687296-57.91203556-9.15834539-32.03208533-2.67322141-68.81798713 19.23881187-109.74994432l-70.78564636 0c-54.68344547 0-99.01165113-44.32820565-99.01165113-99.01165113l0-16.77982037c0-45.96869689 31.33118009-84.61048605 73.80233443-95.76210432l0-358.05915022c0-54.68228153 44.32820565-99.01048718 99.01048719-99.01048718l524.97016035 0c54.68228153 0 99.01048718 44.32820565 99.01048718 99.01048718L873.07176391 406.82367545c42.89612231 10.85938005 74.63829845 49.70841315 74.63829846 95.9798272l0 16.77982037C947.71471929 574.26560455 903.38651363 618.59497415 848.70423211 618.59497415zM548.53266773 665.61619399c2.27503218 25.74954951 10.18176057 45.37607054 23.68991118 58.61294194 30.27167118 29.66274503 83.25757497 22.32768626 86.62820864 21.82238208 23.1019429-4.33699954 62.30724949-14.94721991 68.81682319-37.6416586 5.43260103-18.93609472-7.07309227-51.09392384-34.31177557-88.22678642-0.39353117-0.53557589-0.79172039-1.05601593-1.18641664-1.58809884L549.79359971 618.59497415c-0.52393301 4.43829248-0.95122887 8.77645597-1.26442496 12.99003961C549.20213731 643.4398663100001 549.20213731 654.78592171 548.53266773 665.61619399zM296.65955499 708.40985941c6.52238051 22.73169635 45.84528213 33.33958883 68.93208803 37.66378041 2.54282069 0.39586019 55.67891797 8.0476069 86.26494919-21.60116622 13.65834525-13.24036323 21.65006677-32.94722162 23.94023481-58.85162155-0.67063353-10.83143737-0.67063353-22.17865671 0.00232903-34.03583715-0.31203101-4.21358365-0.74049195-8.55174713-1.26325987-12.99003961L332.15658211 618.59497415c-0.39469625 0.53208291-0.79288547 1.05252295-1.18641664 1.58809884C303.73264725 657.31593443 291.22695395 689.47376469 296.65955499 708.40985941zM222.69305515 48.983413189999965L222.69305515 403.79301547l0.12108686 0 0 72.60776789-47.51837412 0c-14.55950962 0-26.40388323 11.84437362-26.40388323 26.40271929l0 16.77982037c0 14.55834567 11.84437362 26.40271929 26.40388323 26.40271929l117.72769394 0L476.62231325 545.98604231l0-523.40534841L249.0957733 22.58069390000003C234.53742877 22.58069390000003 222.69305515 34.42506751999997 222.69305515 48.983413189999965zM875.10695139 502.80350265c0-14.55834567-11.84437362-26.40271929-26.40271928-26.40271929l-48.23674425 0 0-26.97089479 0-45.63803705 0-354.80960341c0-14.55834567-11.84437362-26.40271929-26.40271929-26.40271929L547.37652281 22.57952995000005 547.37652281 545.98604231l301.32887438 0c14.55834567 0 26.40271929-11.84437362 26.40271929-26.40271929L875.10811534 502.80350265z"  horiz-adv-x="1024" />

    
    <glyph glyph-name="guanbi" unicode="&#59290;" d="M513.027072-74.181632c251.117568 0 454.688768 203.572224 454.688768 454.690816 0 251.119616-203.572224 454.687744-454.688768 454.687744-251.119616 0-454.689792-203.568128-454.689792-454.687744C58.33728 129.390592 261.907456-74.181632 513.027072-74.181632zM314.749952 540.311552c-10.945536 10.955776-10.938368 28.709888 0.017408 39.656448 10.955776 10.945536 28.709888 10.938368 39.656448-0.017408l159.643648-159.787008 159.783936 159.642624c10.955776 10.945536 28.709888 10.938368 39.656448-0.017408 10.945536-10.955776 10.938368-28.710912-0.017408-39.656448l-159.78496-159.642624L713.350144 220.70272c10.945536-10.954752 10.938368-28.709888-0.017408-39.656448-5.474304-5.469184-12.647424-8.204288-19.81952-8.204288-7.180288 0-14.360576 2.740224-19.836928 8.221696L514.03264 340.850688 354.248704 181.208064c-5.474304-5.469184-12.647424-8.204288-19.81952-8.204288-7.180288 0-14.360576 2.741248-19.836928 8.221696-10.945536 10.955776-10.938368 28.709888 0.017408 39.656448l159.783936 159.643648L314.749952 540.311552z"  horiz-adv-x="1024" />

    
    <glyph glyph-name="shijian" unicode="&#59139;" d="M512 820.90666667c-241.02684445 0-436.90666667-195.87982222-436.90666667-436.90666667s195.87982222-436.90666667 436.90666667-436.90666667 436.90666667 195.87982222 436.90666667 436.90666667S753.02684445 820.90666667 512 820.90666667zM512 19.91111110999998c-200.97706667 0-364.08888889 163.11182222-364.08888889 364.08888889s163.11182222 364.08888889 364.08888889 364.08888889 364.08888889-163.11182222 364.08888889-364.08888889S712.97706667 19.91111110999998 512 19.91111110999998zM723.17155555 420.40888889L548.40888889 420.40888889 548.40888889 638.8622222199999c0 20.38897778-16.01991111 36.40888889-36.40888889 36.40888889s-36.40888889-16.01991111-36.40888889-36.40888889l0-254.86222222c0-20.38897778 16.01991111-36.40888889 36.40888889-36.40888889 1.45635555 0 2.18453333 0 3.64088889 0.72817778 1.45635555 0 2.18453333-0.72817778 3.64088889-0.72817778l203.88977777 0c20.38897778 0 36.40888889 16.01991111 36.4088889 36.40888889S743.56053333 420.40888889 723.17155555 420.40888889z"  horiz-adv-x="1024" />

    
    <glyph glyph-name="11" unicode="&#58938;" d="M950.656-9.408l-163.264 163.2c52.992 65.856 84.864 149.376 84.864 240.448 0 212.096-171.904 384-384 384-212.096 0-384-171.904-384-384 0-212.096 171.904-384 384-384 97.92 0 187.072 36.992 254.848 97.344l162.304-162.24C911.68-60.864 919.872-64 928.064-64c8.128 0 16.32 3.136 22.592 9.344C963.136-42.176 963.136-21.888 950.656-9.408zM488.256 74.24c-176.448 0-320 143.552-320 320 0 176.448 143.552 320 320 320 176.448 0 320-143.552 320-320C808.256 217.792 664.704 74.24 488.256 74.24z"  horiz-adv-x="1024" />

    
    <glyph glyph-name="weixin1" unicode="&#58883;" d="M670.81768964 537.90728964c10.21211982 0 20.31803965-0.73116035 30.33765001-1.85273964C673.89011036 663.00881982 538.1648 757.33511982 383.23033965 757.33511982 210.01238018 757.33511982 68.13233018 639.29103018 68.13233018 489.37433965c0-86.56631982 47.20373965-157.59386982 126.08711982-212.72463018l-31.51503018-94.78133965 110.1528 55.22796036c39.41288965-7.78868965 71.03943018-15.82208964 110.37141036-15.82208966 9.8883 0 19.68938964 0.49373964 29.41668018 1.25558966-6.15383965 21.05288965-9.72638965 43.11405-9.72638966 66.02426982C402.92063018 426.20838018 521.135 537.90728964 670.81768964 537.90728964zM499.17283965 629.7368103599999c26.9046 0 48.71385-21.81023965 48.71385-48.71546983s-21.80933964-48.71456982-48.71385001-48.71456983c-26.9064 0-48.71565 21.81023965-48.71565 48.71456983S472.26823965 629.7368103599999 499.17283965 629.7368103599999zM278.70973964 531.3245999999999c-26.9046 0-48.71565 21.81023965-48.71564999 48.71456982 0 26.90433018 21.81113964 48.71456982 48.71565 48.71456982 26.9064 0 48.71655-21.81023965 48.71655-48.71456982C327.42628965 553.13573965 305.61613964 531.3245999999999 278.70973964 531.3245999999999zM956.18158965 291.31421981999995c0 125.97398965-126.05561982 228.66093018-267.64073965 228.66093018-149.92461035 0-268.00046982-102.68693965-268.00046982-228.66093018 0-126.19161035 118.07586035-228.65463018 268.00046982-228.65463018 31.37471982 0 63.02826035 7.92 94.54328965 15.81938966l86.43221983-47.33936983-23.70348018 78.74343017C909.06335 157.33211982 956.18158965 220.25166034999995 956.18158965 291.31421981999995zM606.20551982 326.62878018000004c-19.15956035 0-34.68996035 15.53336982-34.68996035 34.69131034 0 19.15973964 15.5313 34.68951036 34.68996035 34.68951036s34.68996035-15.53066982 34.68996036-34.68951036C640.89736982 342.16125 625.36426982 326.62878018000004 606.20551982 326.62878018000004zM779.42528018 324.66093018000004c-19.16136035 0-34.69086035 15.53246982-34.69086036 34.68951035 0 19.16063965 15.5304 34.68951036 34.69086036 34.68951035 19.15866035 0 34.68996035-15.52976982 34.68996035-34.68951035C814.11623018 340.1934 798.58403018 324.66093018000004 779.42528018 324.66093018000004z"  horiz-adv-x="1024" />

    
    <glyph glyph-name="anzhuang" unicode="&#59039;" d="M971.12869319 238.43983246000005l-73.36455964 5.85174699 0-280.40299862-358.25940936-77.04140344c-16.74372665-3.67567986-34.1685669-3.67567986-50.9088017-0.13622272l-343.83262948 72.27943708c-6.12535637 1.36106098-10.62069931 6.66908217-10.75692202 12.92949618l-5.98564068 229.22291655c-0.13622272 7.21630094 5.30685725 13.34282126 12.38460644 14.02160583l292.10882162 25.59004103c5.03790478 0.40750307 9.39353202 3.67335083 11.29948387 8.43881017l70.23377067 170.41903161 0-467.56459293 317.4264172 60.30116978 0 237.38811848-186.99044294 11.85834552c-15.10905742 0.95821483-28.44838571 10.19922432-34.65873522 24.00543517l-96.86585572 215.40972089-97.32458724-219.2844948c-2.03984441-4.49068601-6.26157909-7.48641735-11.02703843-8.0289792l-344.23780352-34.71112874c-10.48098361-1.08861554-18.10362368 9.66248448-13.61177373 19.32846194l91.60789903 195.87284992c1.90362283 3.94696021 5.58046663 6.80413981 9.79987115 7.61914709l353.08877482 64.79301973 11.705823 2.17606713 11.43221362-2.03984441 360.71257885-64.92924245c4.35446329-0.81500615 8.0289792-3.67335083 9.93492992-7.75653376L984.60424419 257.63207167999997C988.96220046 248.10580991999996 981.47229013 237.62482631 971.12869319 238.43983246000005zM601.28571278 713.13456811L558.77497173 713.13456811l0-90.32135339c0-9.39586105-7.61681806-17.01267911-17.00918613-17.01267911l-51.03803847 0c-9.39236807 0-17.00918613 7.61681806-17.00918614 17.01267911l0 90.32135339-42.50841201 0c-13.09599061 0-21.28098531 14.17762133-14.73299001 25.51901866l85.03079594 147.27401017c6.54799531 11.34139847 22.91449059 11.34139847 29.46481494 0.00349298l85.04709689-147.27750315C622.56669696 727.31568242 614.38170339 713.13456811 601.28571278 713.13456811z"  horiz-adv-x="1024" />

    
    <glyph glyph-name="xiaoxi1" unicode="&#58894;" d="M893.855001 509.412454l-111.558017 0L782.296984 736.646887c0 56.429282-45.898465 102.345811-102.345811 102.345811L147.341118 838.992697c-56.411219 0-102.309684-45.916528-102.309684-102.345811l0-359.348315c0-56.411219 45.898465-102.345811 102.309684-102.345811l7.405892 0-1.137978-151.838843 219.828541 151.838843 11.506227 0 0-136.611607c0-46.928065 38.203563-85.131628 85.131628-85.131628l242.750679 0 179.782537-124.220286-0.885094 124.220286 2.113389 0c46.964191 0 85.131628 38.203563 85.131628 85.131628l0 285.939672C978.986629 471.245017 940.801129 509.412454 893.855001 509.412454zM362.18423 311.079062l-171.943129-118.747151 0.885094 118.747151L147.341118 311.079062c-36.487564 0-66.183383 29.695819-66.183383 66.21951L81.157735 736.646887c0 36.52369 29.695819 66.21951 66.183383 66.21951l532.610055 0c36.505627 0 66.21951-29.695819 66.21951-66.21951l0-227.234433 0-132.113883c0-36.52369-29.713883-66.21951-66.21951-66.21951L384.9438 311.079062 362.18423 311.079062zM942.860328 138.341154c0-27.022473-21.982854-49.005327-49.005327-49.005327l-38.5287 0 0.668337-91.128594-131.915188 91.128594L470.075428 89.335826c-27.022473 0-49.005327 21.982854-49.005327 49.005327l0 136.611607 258.881072 0c56.447345 0 102.345811 45.934592 102.345811 102.345811l0 95.987582 111.558017 0c27.022473 0 49.005327-21.982854 49.005327-49.005327L942.860328 138.341154zM312.998271 565.444346c0-23.283401-18.875992-42.159393-42.159393-42.159393-23.283401 0-42.159393 18.875992-42.159393 42.159393 0 23.283401 18.875992 42.123267 42.159393 42.123267C294.122279 607.567613 312.998271 588.727747 312.998271 565.444346zM455.787476 565.444346c0-23.283401-18.839866-42.159393-42.123267-42.159393-23.283401 0-42.159393 18.875992-42.159393 42.159393 0 23.283401 18.875992 42.123267 42.159393 42.123267C436.94761 607.567613 455.787476 588.727747 455.787476 565.444346zM598.594743 560.747927c0-23.247275-18.875992-42.123267-42.123267-42.123267-23.283401 0-42.159393 18.875992-42.159393 42.123267 0 23.283401 18.875992 42.159393 42.159393 42.159393C579.718751 602.907321 598.594743 584.031328 598.594743 560.747927z"  horiz-adv-x="1024" />

    
    <glyph glyph-name="sdk" unicode="&#58888;" d="M821.375 665.25L202.625 665.25C185.75 665.25 174.5 676.5 174.5 693.375l0 0c0 16.875 11.25 28.125 28.125 28.125l618.75 0c16.875 0 28.125-11.25 28.125-28.125l0 0C849.5 676.5 838.25 665.25 821.375 665.25zM737 777.75L287 777.75C270.125 777.75 258.875 789 258.875 805.875l0 0c0 16.875 11.25 28.125 28.125 28.125l450 0c16.875 0 28.125-11.25 28.125-28.125l0 0C765.125 789 753.875 777.75 737 777.75zM877.625-9.75l-196.875 0c-47.8125 0-84.375 36.5625-84.375 84.375l0 84.375 84.375 0c11.25 0 19.6875 5.625 25.3125 16.875 5.625 11.25 2.8125 22.5-2.8125 30.9375l-168.75 196.875c-11.25 14.0625-30.9375 14.0625-42.1875 0l-168.75-196.875c-8.4375-8.4375-8.4375-19.6875-2.8125-30.9375C323.5625 164.625 332 159 343.25 159l84.375 0 0-84.375c0-47.8125-36.5625-84.375-84.375-84.375L146.375-9.75c-16.875 0-28.125 11.25-28.125 28.125L118.25 524.625c0 16.875 11.25 28.125 28.125 28.125l731.25 0c16.875 0 28.125-11.25 28.125-28.125l0-84.375c0-16.875 11.25-28.125 28.125-28.125l0 0c16.875 0 28.125 11.25 28.125 28.125l0 84.375c0 47.8125-36.5625 84.375-84.375 84.375L146.375 609c-47.8125 0-84.375-36.5625-84.375-84.375l0-506.25c0-47.8125 36.5625-84.375 84.375-84.375l196.875 0c78.75 0 140.625 61.875 140.625 140.625l0 112.5c0 16.875-11.25 28.125-28.125 28.125l-50.625 0 106.875 126.5625 106.875-126.5625L568.25 215.25c-16.875 0-28.125-11.25-28.125-28.125l0-112.5c0-78.75 61.875-140.625 140.625-140.625l196.875 0c47.8125 0 84.375 36.5625 84.375 84.375L962 327.75c0 16.875-11.25 28.125-28.125 28.125l0 0c-16.875 0-28.125-11.25-28.125-28.125l0-309.375C905.75 1.5 894.5-9.75 877.625-9.75z"  horiz-adv-x="1024" />

    
    <glyph glyph-name="caidan" unicode="&#58916;" d="M138.23529453 102.35294092000004C98 102.35294092000004 62 68.47058818000005 62 28.235294530000033 62-12 98-48 138.23529453-48 178.47058818-48 212.35294092-12 212.35294092 28.235294530000033 212.35294092 68.47058818000005 178.47058818 102.35294092000004 138.23529453 102.35294092000004ZM138.23529453 466.58823545C98 466.58823545 62 432.70588271 62 392.47058818 62 352.23529453000003 98 318.35294092000004 138.23529453 318.35294092000004 178.47058818 318.35294092000004 212.35294092 352.23529453000003 212.35294092 392.47058818 212.35294092 432.70588271 178.47058818 466.58823545 138.23529453 466.58823545ZM409.29411729 688.94117636L1050.94117637 688.94117636C1089.05882364 688.94117636 1120.8235291 718.58823545 1120.8235291 756.70588271 1120.8235291 794.82352911 1089.05882364 826.58823545 1050.94117637 826.58823545L409.29411729 826.58823545C371.17647089 826.58823545 339.41176455 794.82352911 339.41176455 756.70588271 339.41176455 718.58823545 371.17647089 688.94117636 409.29411729 688.94117636ZM138.23529453 832.94117637C98 832.94117637 62 796.94117636 62 756.70588271 62 716.47058818 98 682.58823545 138.23529453 682.58823545 178.47058818 682.58823545 212.35294092 716.47058818 212.35294092 756.70588271 212.35294092 796.94117636 178.47058818 832.94117637 138.23529453 832.94117637ZM1050.94117637 462.35294092L409.29411729 462.35294092C371.17647089 462.35294092 339.41176455 430.58823545 339.41176455 392.47058818 339.41176455 354.35294092000004 371.17647089 322.58823544999996 409.29411729 322.58823544999996L1050.94117637 322.58823544999996C1089.05882364 322.58823544999996 1120.8235291 354.35294092000004 1120.8235291 392.47058818 1120.8235291 430.58823545 1089.05882364 462.35294092 1050.94117637 462.35294092ZM1050.94117637 98.11764727000002L409.29411729 98.11764727000002C371.17647089 98.11764727000002 339.41176455 66.35294092000004 339.41176455 28.235294530000033 339.41176455-9.88235272999998 371.17647089-41.64705907999996 409.29411729-41.64705907999996L1050.94117637-41.64705907999996C1089.05882364-41.64705907999996 1120.8235291-9.88235272999998 1120.8235291 28.235294530000033 1120.8235291 66.35294092000004 1089.05882364 98.11764727000002 1050.94117637 98.11764727000002Z"  horiz-adv-x="1205" />

    
    <glyph glyph-name="qq1" unicode="&#58884;" d="M158.75 123.48427733999995c19.71386719-6.66298828 41.24443359-2.61298828 60.61113281 11.5444336 0.50273437-0.77871094 0.98701172-1.53984375 1.48886719-2.30185547-33.075-20.18056641-51.525-48.35742188-51.525-79.77128906 0-64.60927734 75.99814453-111.49628906 180.72685547-111.49628907 55.54072266 0 107.01386719 14.41757813 140.08886719 38.925 10.74814453-0.60556641 20.33613281-0.60556641 31.2055664-0.01757812 33.075-24.48984375 84.53056641-38.90742187 140.07128907-38.90742188 104.71113281 0 180.74355469 46.88701172 180.74355468 111.49628907 0 31.34443359-18.38056641 59.43515625-51.31669922 79.63330078a87.7921875 87.7921875 0 0 1 1.50556641 2.31855468c19.31572266-14.05371094 40.70742188-18.12128906 60.43886719-11.43984375 59.03613281 20.05927734 62.25556641 123.05742187 35.325 209.78613282-14.29628906 46.00371094-40.5703125 82.05556641-62.46386719 106.04443359 0.25927734 3.32226563 0.39814453 6.62871094 0.39814453 9.96943359 0 25.44169922-6.66386719 50.12314453-19.8 73.53984375v0.32871094c0 167.27958984-134.70556641 303.38701172-300.27128906 303.38701172-165.58242187 0-300.28798828-136.10742188-300.28798828-303.38701172v-1.07226562c-12.86015625-23.19257813-19.38515625-47.64814453-19.38515625-72.77958985 0-3.02871094 0.10371094-6.09169922 0.34628906-9.20742187-22.17128906-24.12685547-48.75556641-60.45556641-63.15556641-106.82226563-26.94814453-86.76386719-23.72871094-189.72773438 35.25556641-209.7703125z m6.99257813 196.63330078c13.39628906 43.18242188 39.94628906 76.4296875 59.85 96.69726563a22.14492188 22.14492188 0 0 1 6.05742187 18.95273437c-0.72685547 4.67314453-1.10742188 9.13798828-1.10742187 13.48242188 0 19.05556641 5.53798828 37.83427734 16.425 55.74814453a22.4015625 22.4015625 0 0 1 3.18427734 13.03242188 70.20878906 70.20878906 0 0 0-0.20742188 5.08886718c0 142.875 114.85371094 259.11298828 256.01484375 259.11298828s256.01572266-116.23798828 256.01572266-259.11298828c0-1.54072266-0.06943359-3.02871094-0.17314453-4.53515625a22.21611328 22.21611328 0 0 1 3.23701172-13.03242187c11.11113281-18.06943359 16.73613281-37.00371094 16.73613281-56.28515625 0-4.53427734-0.39814453-9.12041016-1.19443359-14.00097656-1.17685547-6.95830078 1.07314453-14.01943359 6.0055664-19.09072266 19.66113281-20.12871094 45.93515625-53.15185547 59.2444336-96.05742188 23.69443359-76.275 15.38701172-147.02871094-7.21669922-154.71386718-11.71757812-3.96386719-25.59814453 8.53242188-34.23515625 18.84814453-4.68984375 5.64257813-11.78613281 8.61943359-19.28056641 7.8055664a22.09306641 22.09306641 0 0 1-17.22128906-11.6305664 285.39316406 285.39316406 0 0 0-27.46757813-42.16113281 22.18535156 22.18535156 0 0 1-3.99814453-19.26386719 22.16162109 22.16162109 0 0 1 12.91113281-14.83242188c30.8953125-12.87685547 48.58330078-31.53515625 48.58330079-51.19628906 0-37.07314453-61.21669922-67.22314453-136.47128907-67.22314453-48.78984375 0-94.20556641 13.03242187-118.48798828 34.02685547a22.12558594 22.12558594 0 0 1-14.46943359 5.38242187c-0.53613281 0-1.10742188-0.01757813-1.64355469-0.06855468-15.28330078-1.14257813-27.20830078-1.125-42.05830078 0.01757812-6.09257813 0.53613281-11.73427734-1.47216797-16.16572266-5.31386719-24.31669922-21.01201172-69.73242188-34.04443359-118.53984375-34.04443359-75.23701172 0-136.45371094 30.15-136.45371093 67.22314453 0 19.73144531 17.79169922 38.44072266 48.78984375 51.3 6.40371094 2.66572266 11.18056641 8.11757812 12.92871093 14.83242188a22.07197266 22.07197266 0 0 1-3.96386718 19.26386718c-10.43613281 13.34443359-19.66113281 27.55371094-27.4491211 42.23056641a22.11591797 22.11591797 0 0 1-17.2555664 11.64814453c-7.44257812 0.77871094-14.57314453-2.16386719-19.29814454-7.80556641-8.68886719-10.40185547-22.43144531-23.15830078-34.37402343-19.00371093-22.6546875 7.65-30.92871094 78.38613281-7.25097657 154.67871093z"  horiz-adv-x="1024" />

    
    <glyph glyph-name="performance" unicode="&#58890;" d="M483.2-56.95999969000002H480.00000031c-12.79999969 1.27999969-23.04 12.16000031-24.32000062 24.96L405.75999969 614.4 326.40000031 211.84000031000005c-1.92-11.52-10.87999969-19.84000031-22.40000062-21.76000031-11.52-1.92-22.39999969 3.84-28.15999969 13.44L212.48 319.99999969 115.20000031 256.00000031c-6.40000031-4.48000031-14.71999969-5.76-21.76000031-3.84l-30.07999969 7.68c-14.71999969 3.84-23.04 18.55999969-19.2 33.27999938 3.84 14.71999969 18.55999969 23.04 33.27999938 19.2l18.56000062-5.11999969 111.36 73.60000031c6.40000031 4.48000031 14.08000031 5.76 21.75999938 3.84 7.03999969-1.92 13.44-6.40000031 17.28-13.44L288.00000031 295.67999999999995 391.04 819.19999969c2.56000031 13.44 14.71999969 23.04 28.15999969 21.76000031 13.44-0.64000031 24.31999969-11.52 25.60000031-24.96L499.20000031 115.20000000000005l119.67999938 389.76c3.19999969 11.52 13.44 19.2 25.60000031 19.2 13.44-1.27999969 22.39999969-7.03999969 26.23999969-18.55999969l71.04-206.72000062 15.36 32.00000062c4.48000031 9.6 14.71999969 15.36 25.60000031 15.36l174.72-8.96000062c14.71999969-0.64000031 26.23999969-13.44 25.60000031-28.15999969-0.64000031-14.71999969-14.71999969-26.23999969-28.8-25.60000031l-156.80000062 7.68-35.83999969-75.51999938c-4.48000031-10.24000031-14.71999969-16.00000031-26.23999969-15.36-10.87999969 0.64000031-20.47999969 7.68-24.32000062 18.55999969L645.75999969 408.31999969l-136.95999938-446.07999938c-3.19999969-11.52-14.08000031-19.2-25.60000031-19.2z"  horiz-adv-x="1024" />

    
    <glyph glyph-name="taocan" unicode="&#59845;" d="M373.79199969 312.576H150.98400031c-46.87999969 0-84.88000031-37.99999969-84.88000031-84.88000031v-222.80799938c0-46.87999969 37.99999969-84.88000031 84.88000031-84.88000031h222.80799938c46.87999969 0 84.88000031 37.99999969 84.88000031 84.88000031V227.69599969c0 46.872-37.99999969 84.88000031-84.88000031 84.88000031z m42.44000062-291.78400031a63.66400031 63.66400031 0 0 0-63.66400031-63.66399938H172.20000031a63.66400031 63.66400031 0 0 0-63.66400031 63.66399938v185.68000031a63.66400031 63.66400031 0 0 0 63.66400031 63.66400031h180.36799969a63.66400031 63.66400031 0 0 0 63.66400031-63.66400031v-185.68000031zM373.79199969 795.32800031H150.98400031c-46.87999969 0-84.88000031-37.99999969-84.88000031-84.88000031v-222.80800031c0-46.87999969 37.99999969-84.88000031 84.88000031-84.87999938h222.80799938c46.87999969 0 84.88000031 37.99999969 84.88000031 84.87999938V710.448c0 46.87999969-37.99999969 84.88000031-84.88000031 84.88000031z m42.44000062-291.77600062a63.66400031 63.66400031 0 0 0-63.66400031-63.66399938H172.20000031a63.66400031 63.66400031 0 0 0-63.66400031 63.66399938v185.68000031a63.66400031 63.66400031 0 0 0 63.66400031 63.66400031h180.36799969a63.66400031 63.66400031 0 0 0 63.66400031-63.66400031v-185.68000031z m440.31999938-190.97599969H633.73599969c-46.87999969 0-84.88000031-37.99999969-84.87999938-84.88000031v-222.80799938c0-46.87999969 37.99999969-84.88000031 84.87999938-84.88000031h222.80800031c46.87999969 0 84.88000031 37.99999969 84.88000031 84.88000031V227.69599969c0.00799969 46.872-37.992 84.88000031-84.87200062 84.88000031z m42.44000062-291.78400031a63.66400031 63.66400031 0 0 0-63.66400031-63.66399938H654.96000031a63.66400031 63.66400031 0 0 0-63.66400031 63.66399938v185.68000031a63.66400031 63.66400031 0 0 0 63.66400031 63.66400031h180.36799969a63.66400031 63.66400031 0 0 0 63.66400031-63.66400031v-185.68000031z m60.144 638.27200031L801.584 816.61600031c-33.144 33.144-86.88799969 33.144-120.04000031 0L524 659.064c-33.144-33.144-33.144-86.88799969 0-120.04000031l157.55200031-157.55199938c33.144-33.144 86.88799969-33.144 120.03999938 0l157.55200031 157.55199938c33.144 33.15199969 33.144 86.89600031-0.00799969 120.04000031z m-45.00800062-105.03199969L782.83200031 422.736a63.65599969 63.65599969 0 0 0-90.03200062 0L565.26399969 550.2799996900001a63.65599969 63.65599969 0 0 0 0 90.03200062L696.55200031 771.6a63.65599969 63.65599969 0 0 0 90.03199969 0l127.54399969-127.54399969a63.66400031 63.66400031 0 0 0 0-90.024z"  horiz-adv-x="1024" />

    
    <glyph glyph-name="qiantaiguanli01-copy" unicode="&#58885;" d="M909.187 738.251h-784.822c-25.757 0-46.71-19.948-46.71-44.46v-515.955c0-24.508 20.953-44.451 46.71-44.451h306.369v-87.326h-74.953c-13.109 0-23.738-10.623-23.738-23.732s10.628-23.738 23.738-23.738h325.733c13.109 0 23.732 10.628 23.732 23.738 0 13.108-10.621 23.732-23.732 23.732h-74.951v87.326h302.621c25.756 0 46.714 19.941 46.714 44.451v515.955c0 24.513-20.957 44.46-46.714 44.46zM565.814 46.060h-93.924v87.326h93.924v-87.326zM905.058 278.814h-775.975v407.721h775.977v-407.721zM464.85 415.072c4.351 4.351 9.565 9.001 15.641 13.956 6.078 4.954 12.87 9.604 20.374 13.955l27.683-61.45c1.502-2.853 3.421-5.219 5.737-7.093 2.331-1.879 4.879-3.264 7.657-4.162 2.782-0.905 5.665-1.241 8.672-1.017 2.999 0.223 5.852 1.087 8.549 2.591 2.852 1.498 5.212 3.411 7.098 5.737 1.873 2.331 3.259 4.88 4.158 7.655 0.903 2.771 1.239 5.666 1.014 8.666-0.223 3.001-1.087 5.925-2.59 8.778l-33.090 54.702c8.56 2.249 16.921 3.899 25.099 4.95 8.185 1.051 15.494 1.802 21.947 2.249 7.504 0.604 14.702 0.829 21.607 0.681l-153.513 118.403 0.451-183.684c3.899 5.108 8.401 10.134 13.504 15.084z"  horiz-adv-x="1024" />

    
    <glyph glyph-name="jifen" unicode="&#58889;" d="M937.05048828 47.798144529999945V358.2796875c0 54.72949219-77.88339844 109.98457031-226.80966797 109.98457031s-226.80966797-55.25507812-226.80966797-109.98457031v-314.16503906c0-54.72949219 77.88339844-109.98457031 226.80966797-109.98457031 147.346875 0 225.75673828 54.72949219 226.80966797 108.93164062v4.73642578z m-47.36162109-3.684375c0-22.10185547-61.57001953-63.14853516-179.97451172-63.14853516s-179.97451172 41.04667969-179.97451172 63.14853516v87.35537109l11.05136719-5.78847656c41.57314453-22.62832031 99.98525391-34.73173828 168.92314453-34.73173828 68.41142578 0 126.82353516 12.10341797 168.92314453 34.73173828l11.05136719 5.78847656v-87.35537109z m0 157.34619141c0-22.10185547-61.57001953-63.14853516-179.97451172-63.14853516s-179.97451172 41.04667969-179.97451172 63.14853516v87.35537109l11.05136719-5.78847656c41.57314453-22.62832031 99.98525391-34.73173828 168.92314453-34.73173828 68.41142578 0 126.82353516 12.10341797 168.92314453 34.73173828l11.05136719 5.78847656v-87.35537109z m-179.97363282 93.6711914c-117.87802734 0-179.97451172 41.04667969-179.97451171 63.14853516s61.57001953 63.14853516 179.97451171 63.14853516 179.97451172-41.04667969 179.97451172-63.14853516c-0.00087891-21.57626953-61.57089844-63.14853516-179.97451172-63.14853516zM772.33730469 504.04804688v171.55371093C772.33730469 778.74492187 597.09921875 834 432.38603516 834S92.43564453 778.74492187 92.43564453 675.60175781v-488.87666015c0-101.03818359 171.028125-156.81972656 332.58339844-158.39824219v46.83515625C253.99091797 76.74140624999995 139.27080078 134.10058593999997 139.27080078 186.72509765999996V347.75390625l11.57695313-7.89345703c60.51796875-40.52021484 165.23964844-66.30644531 274.17128906-67.359375v47.36162109c-171.028125 1.57939453-285.74824219 58.93945313-285.74824219 111.56308594V592.45546875l11.57695313-7.89345703c62.09648437-41.57314453 169.44960937-67.359375 281.53828125-67.359375 111.56308594 0 219.44179687 25.78623047 281.53828125 67.359375l11.57695312 7.89345703v-88.40830078l46.83603516 0.0008789z m-340.47685547 60.51708984c-172.60664063 0-293.11611328 58.93857422-293.11611328 111.56220703S259.25380859 787.69042969 431.86044922 787.69042969 724.9765625 728.75185547 724.9765625 676.12822266 604.99267578 564.56513672 431.86044922 564.56513672z"  horiz-adv-x="1024" />

    
    <glyph glyph-name="youxiang" unicode="&#58980;" d="M885.5 706.3125H138.5c-41.34375 0-75.0375-35.71875-75.0375-79.59375v-485.49375c0-43.93125 33.69375-79.59375 75.0375-79.59375h747c41.5125 0 75.0375 35.6625 75.0375 79.59375V626.71875c0 43.93125-33.525 79.59375-75.0375 79.59375m-18-56.925L569.6 369.375c-25.93125-24.58125-45.16875-36.73125-57.6-36.73125s-31.66875 12.15-57.65625 36.73125L156.5 649.3875h711M119.31875 159V597.6375l232.65-216.28125L119.31875 159m39.09375-40.33125L391.90625 338.4375l38.30625-35.55c22.1625-20.5875 49.6125-31.10625 81.7875-31.10625 32.34375 0 59.625 10.575 81.9 31.1625l38.25 35.55 233.55-219.76875H158.4125v-0.05625M904.68125 159l-232.59375 222.35625 232.59375 216.28125V159m0 0"  horiz-adv-x="1024" />

    
    <glyph glyph-name="pingguo" unicode="&#58942;" d="M775.93420127 355.79678701c1.32178008-136.14336387 128.21268252-181.3651207 129.67507705-182.04007236-1.15304238-3.06540528-20.3329169-64.54224756-66.96082441-128.01582158-40.32835839-54.81169541-82.06286573-109.39840576-147.92689336-110.49520254-64.76723086-1.15304238-85.57823935 35.74431211-159.62605489 35.7443121-74.01969317 0-97.13678555-34.64751622-158.38864365-36.89735448-63.52981963-2.24983828-111.95759795 59.17075752-152.62343173 113.8418376-83.07529365 111.76073701-146.52074443 315.79298261-61.25185811 453.48311073 42.26884453 68.3950957 117.89154756 111.70449052 200.01065889 112.85753292 62.43302373 1.04055029 121.40692031-39.20343926 159.51356366-39.20343927 38.21913457 0 109.84837412 48.34340859 185.10547765 41.25641661 31.52586445-1.20928799 120.02889375-11.81165273 176.80919765-89.12173447-4.4715542-2.72792901-105.60180322-57.39900908-104.33626875-171.40958526zM510.76258877 626.59299609c-7.34009854 51.7181669 20.02356474 105.48931113 51.29632178 139.26501475 34.90062276 38.05039688 93.79015049 66.34211836 142.41478886 68.14198916 6.2151794-52.70247158-16.59255996-105.60180322-50.31201709-143.68032334-33.77570362-38.02227363-89.14985771-67.63577519-143.39909355-63.72668057z"  horiz-adv-x="1024" />

    
    <glyph glyph-name="dingwei" unicode="&#59056;" d="M864.54272 460.04709603c0 200.05848974-159.02291058 362.23081927-355.18799872 362.23081928-196.16392306 0-355.18683477-162.17232953-355.18683363-362.23081928 0-6.35006521 0.61474816-12.48822841 0.93492792-18.70323598-0.29223822-3.0690816-0.93492907-6.0298843-0.93492792-9.17930211 0-222.95085966 327.86665131-475.49577102 327.86665016-475.49577103s27.32134741-20.89094599 54.64385992 0c27.32134741 20.91888867 327.86548622 252.54374741 327.86548736 475.49577103 0 3.14941781-0.63919787 6.11022051-0.93260118 9.17930211 0.31901696 6.21500643 0.93143609 12.35317077 0.93143609 18.70323598zM509.35472128 320.69029205000004c-75.45679758 0-136.61023118 62.38059975-136.61023118 139.35680398 0 76.92264562 61.1534336 139.30441045 136.61023118 139.30440932 75.45796267 0 136.61139513-62.38176483 136.61139627-139.30440932 0-76.97620309-61.1534336-139.35680285-136.61139627-139.35680398z"  horiz-adv-x="1024" />

    
    <glyph glyph-name="xiaoxi" unicode="&#58909;" d="M512 487.56306132a51.78153127 51.78153127 0 1 1 0.02589036-103.58895168A51.78153127 51.78153127 0 0 1 512 487.56306132z m-207.12612386 0a51.78153127 51.78153127 0 1 1 0.02589157-103.58895168A51.78153127 51.78153127 0 0 1 304.87387614 487.56306132z m414.25224772 0a51.78153127 51.78153127 0 1 1 0.02589036-103.58895168A51.78153127 51.78153127 0 0 1 719.12612386 487.56306132zM512 798.25224651C283.22919705 798.25224651 97.74775349 635.96892918 97.74775349 435.78153127c0-114.35951051 60.7397357-216.26556325 155.34459259-282.64948622V-30.252246509999964l181.49426487 110.13931615c25.11404206-4.14252206 50.92713601-6.57625483 77.41338905-6.57625482 228.74491259 0 414.25224651 162.28331732 414.25224651 362.47071645S740.77080295 798.25224651 512 798.25224651z m0-673.15990043c-30.24041362 0-59.44519702 3.54703527-87.53667792 9.50191051l-121.8678329-73.27086576 1.63111823 120.10726042C210.78683497 237.61361183999998 149.52928355 330.50967821999996 149.52928355 435.78153127c0 171.57810252 162.28331732 310.68918518 362.47071645 310.68918518s362.47071645-139.11108267 362.47071645-310.68918518-162.28331732-310.68918518-362.47071645-310.68918519z"  horiz-adv-x="1024" />

    
    <glyph glyph-name="ziliaoguanli" unicode="&#58905;" d="M797.77636719 471.29472656h104.76035156v-52.32832031h-104.76035156v52.32832031zM797.77636719 314.67363280999996h104.76035156v-51.18398437h-104.76035156v51.18398437zM850.15654297 158.62646484000004h52.43203125v-51.1321289h-52.43203125v51.1321289zM590.07587891 367.36669922c54.82529297 12.9515625 104.03173828 120.15703125 104.03173828 208.06347656 0.10019531 2.65253906 0.15732422 5.76738281 0.15732422 8.89541016 0 138.98496094-112.66875 251.65371094-251.65371094 251.65371094-3.12802734 0-6.24375-0.05712891-9.34453125-0.17050782-193.72763672 0.01318359-259.94355469-124.82578125-259.94355469-260.37949219 0-40.93681641 13.88847656-197.40058594 104.03173828-208.06347656-158.96074219-89.72841797-208.32451172-244.47568359-208.32451172-409.67841797v-6.76230468h52.0163086s11.02763672 364.52900391 260.39179687 364.5290039c21.89882813 0 159.32548828 3.95332031 104.03173828 0 240.72978516 17.26962891 260.39179688-364.52900391 260.39179688-364.5290039h52.01630859s13.00429687 322.5515625-207.95976562 416.33613281zM225.49501953 575.43017578c-0.26015625 3.7828125-0.40957031 8.1984375-0.40957031 12.64921875 0 108.15996094 87.68056641 195.84052734 195.84052734 195.84052734 4.53603516 0 9.03691406-0.15380859 13.49560547-0.45791015 0.96679688 0.07646484 2.81337891 0.10107422 4.66699219 0.10107422 112.03857422 0 202.86210937-90.82529297 202.86210937-202.86210938 0-1.85361328-0.02548828-3.70019531-0.07470703-5.5415039 0.1546875-2.60947266 0.24082031-5.98359375 0.24082031-9.37792969 0-109.71123047-88.93828125-198.64863281-198.64863281-198.64863281-3.39433594 0-6.76845703 0.084375-10.12060547 0.253125-192.87333984-0.12304688-206.60537109 125.13164062-208.00898437 208.14960937zM954.60488281 627.44736328h-208.06347656v-52.01630859h208.06347656v-572.80078125h-104.03173828l-1.87207031-52.0163086h95.29365234c34.65527344 0.43681641 62.58076172 28.63300781 62.58076172 63.3506836 0 0.29443359-0.00175781 0.58798828-0.00615234 0.88154297l0.0008789 548.77675781c0.44296875 2.6296875 0.69609375 5.65839844 0.69609375 8.746875 0 29.6296875-23.30595703 53.81630859-52.58583984 55.22871094z"  horiz-adv-x="1084" />

    
    <glyph glyph-name="add" unicode="&#58939;" d="M909.4085 88.53899999999999V330.38250000000005h-52.4745v-241.8435c-23.9895-7.9785-41.499-26.748-49.473-49.257H539.09v-52.5195h268.371c10.899-31.509 40.284-52.7625 74.844-52.7625 43.839 0 79.695 35.667 79.695 79.5375 0 34.587-22.6035 64.0935-52.5915 75.0015z m-27.1035-101.385a26.469 26.469 0 0 0-26.4555 26.478 26.4645 26.4645 0 0 0 26.4555 26.478 26.469 26.469 0 0 0 26.4555-26.478 26.469 26.469 0 0 0-26.4555-26.478z m-25.371 693.009v-217.737h52.4745V680.1675C939.3965 691.0755 962 720.483 962 755.0654999999999c0 43.875-35.694 78.9345-79.533 78.9345-34.56 0-64.107-21.9555-75.0015-53.4645H539.09v-52.5195h268.371c7.974-22.509 25.488-39.87 49.473-47.853z m25.371 101.385a26.469 26.469 0 0 0 26.4555-26.478 26.469 26.469 0 0 0-26.4555-26.478 26.469 26.469 0 0 0-26.4555 26.478 26.469 26.469 0 0 0 26.4555 26.478zM168.7715 88.53899999999999V330.38250000000005H114.7985v-241.8435C84.815 77.63099999999997 62 48.223499999999945 62 13.636499999999955c0-43.8705 35.5905-79.6365 79.4295-79.6365 34.56 0 63.999 21.2535 74.898 52.7625h243.306v52.5195H216.3275c-7.974 22.509-25.065 41.2785-47.556 49.257z m-27.2835-101.385a26.469 26.469 0 0 0-26.4555 26.478 26.4645 26.4645 0 0 0 26.4555 26.478 26.469 26.469 0 0 0 26.4555-26.478 26.469 26.469 0 0 0-26.4555-26.478zM114.7985 680.163v-217.737h53.973V680.1675c22.491 7.9785 39.5775 25.344 47.5515 47.8485h243.306V780.5355H216.3275C205.4285 812.0445 176.0435 834 141.488 834 97.649 834 62 798.6885 62 754.8135c0-34.587 22.815-63.7425 52.7985-74.6505z m26.6895 101.385a26.469 26.469 0 0 0 26.4555-26.478 26.469 26.469 0 0 0-26.4555-26.478 26.469 26.469 0 0 0-26.4555 26.478 26.469 26.469 0 0 0 26.4555 26.478z m397.602-424.1565h131.5485c14.6115 0 26.4555 11.6325 26.4555 26.2575s-11.844 26.2575-26.4555 26.2575H539.09V543.2280000000001c0 14.625-12.375 26.478-26.9865 26.478s-26.9865-11.8575-26.9865-26.478v-133.3215H353.1455c-14.6115 0-26.4555-11.6325-26.4555-26.2575s11.844-26.2575 26.4555-26.2575h131.9715v-131.9175c0-14.6205 12.375-26.478 26.9865-26.478s26.9865 11.8575 26.9865 26.478V357.39149999999995z"  horiz-adv-x="1024" />

    
    <glyph glyph-name="dengru-kongxin" unicode="&#59663;" d="M830-55.99999968999998H192.00000031c-42 0-73.99999969 34.00000031-74.00000062 73.99999969V750C117.99999969 790.00000031 150.00000031 823.99999969 192.00000031 823.99999969h639.99999938c42 0 73.99999969-31.99999969 74.00000062-73.99999969v-162c0-4.00000031-4.00000031-10.00000031-10.00000031-10.00000031h-46.00000031c-4.00000031 0-10.00000031 4.00000031-9.99999938 10.00000031V750c0 6-4.00000031 12-12 12H192.00000031c-6 0-12-6-12-12v-730.00000031c0-6 4.00000031-12 12-12h639.99999938c6 0 12 4.00000031 12 12v162c0 4.00000031 4.00000031 10.00000031 10.00000031 10.00000031h46.00000031c4.00000031 0 10.00000031-4.00000031 9.99999938-10.00000031v-162c-6-43.99999969-37.99999969-76.00000031-79.99999969-75.99999938zM612.00000031 592.00000031c10.00000031 0 16.00000031-4.00000031 24-10.00000031 6-6 10.00000031-13.99999969 9.99999938-24s-1.99999969-16.00000031-9.99999938-24l-126-126h384c4.00000031 0 10.00000031-4.00000031 9.99999938-10.00000031v-45.99999938c0-4.00000031-4.00000031-10.00000031-9.99999938-10.00000031h-380.00000062l122.00000062-121.99999969c6-6 10.00000031-13.99999969 9.99999938-24s-1.99999969-16.00000031-9.99999938-24c-6-6-13.99999969-10.00000031-24-10.00000031s-16.00000031 4.00000031-24 10.00000031L416 364.00000031c-6 6-10.00000031 13.99999969-10.00000031 24s1.99999969 16.00000031 10.00000031 24l175.99999969 175.99999969c4.00000031 0 13.99999969 4.00000031 20.00000062 4.00000031z"  horiz-adv-x="1024" />

    
    <glyph glyph-name="beifen" unicode="&#59050;" d="M548.13459131 790.06363652c-7.24090869 4.05-24.01363653 4.05-31.2545461 1e-8L153.60731826 587.31818174l363.27272695-202.70454521c7.24090869-4.05 24.01363653-4.05 31.2545461 0l363.27272695 202.70454521-363.27272695 202.74545478z m411.66818174-182.86363652c19.63636348-10.96363652 19.63636348-28.75909131 0-39.68181826l-391.74545479-218.61818174c-19.63636348-10.96363652-51.46363652-10.96363652-71.1 0L105.21186347 567.51818174c-19.63636348 10.92272695-19.63636348 28.71818174 1e-8 39.68181826L496.95731826 825.73636348c19.63636348 10.96363652 51.50454521 10.96363652 71.1-1e-8l391.74545479-218.61818173zM72.68913652 446.59090869A20.45454521 20.45454521 0 0 0 92.3255 482.59090869l413.91818174-225.77727217c13.86818174-7.56818174 38.65909131-7.56818174 52.52727305 0l413.95909042 225.81818174a20.45454521 20.45454521 0 0 0 19.59545479-35.95909131L578.3255 220.85454520999997c-26.1-14.23636348-65.65909131-14.19545479-91.71818174 0L72.73004521 446.67272695z m1e-8-122.72727216a20.45454521 20.45454521 0 0 0 19.59545478 35.91818173l413.91818174-225.77727305c13.86818174-7.56818174 38.65909131-7.56818174 52.52727216 0l413.95909132 225.81818174a20.45454521 20.45454521 0 0 0 19.59545478-35.95909043L578.3255 98.12727304999999c-26.1-14.23636348-65.65909131-14.19545479-91.71818174 0L72.73004521 323.94545479z m0-122.72727305a20.45454521 20.45454521 0 0 0 19.59545478 35.91818173l413.91818174-225.77727216c13.86818174-7.56818174 38.65909131-7.56818174 52.52727216 0l413.95909132 225.81818174a20.45454521 20.45454521 0 0 0 19.59545478-35.95909132L578.3255-24.600000000000023c-26.1-14.23636348-65.65909131-14.19545479-91.71818174 0L72.73004521 201.21818173999998z"  horiz-adv-x="1070" />

    
    <glyph glyph-name="jiantou" unicode="&#58976;" d="M763.71025537 355.74400166L313.84054531-54.41549355999996a37.92580401 37.92580401 0 0 0-53.4756665 0 37.52926787 37.52926787 0 0 0 0 53.2207503l422.7070166 385.43266494L260.30823066 769.75555752a37.44429609 37.44429609 0 0 0 1e-8 53.16410303 37.86915586 37.86915586 0 0 0 53.4756665 0l449.86971006-410.15949522a43.30735927 43.30735927 0 0 0 0.05664814-57.01616367z"  horiz-adv-x="1024" />

    
    <glyph glyph-name="jia1" unicode="&#58880;" d="M512.00051856 825.57716542c-244.55190146 0-442.79798994-198.24501972-442.79798994-442.79692118 0-244.55083184 198.24608935-442.79692119 442.79798994-442.79692119 244.54976309 0 442.79692119 198.24608935 442.79692118 442.79692119C954.79743974 627.33107607 756.55135039 825.57716542 512.00051856 825.57716542zM797.76112871 97.01963407999995c-37.12717792-37.12610918-80.35206503-66.26768379-128.46880195-86.62295566-49.80044883-21.06296543-102.72137695-31.74143906-157.29180733-31.74143907-54.57256875 0-107.49242813 10.67847363-157.2939457 31.74143907-48.11459941 20.35527187-91.34055527 49.49684648-128.46666446 86.62295566s-66.27302842 80.35099628-86.62295565 128.46773321c-21.06189667 49.80044883-31.74250781 102.72137695-31.74250782 157.29287695 0 54.57684463 10.68061114 107.49777276 31.74250782 157.2939457 20.34992724 48.11673691 49.49577773 91.34055527 86.62295565 128.46773321 37.12610918 37.12717792 80.35206503 66.27302842 128.46666446 86.62295566 49.79617295 21.06403418 102.71710107 31.74143906 157.2939457 31.74143906 54.57043125 0 107.49135849-10.67847363 157.29180732-31.74143906 48.11673691-20.34992724 91.34055527-49.4947081 128.46880197-86.62295566 37.12610918-37.12610918 66.26661416-80.35099628 86.62188602-128.46773321 21.06296543-49.79617295 31.74143906-102.71710107 31.74143907-157.2939457 0-54.5715-10.67847363-107.49242813-31.74143907-157.29287695C864.02881162 177.37063036999996 834.88723789 134.14574326000002 797.76112871 97.01963407999995zM718.27604141 402.11780596L531.33701152 402.11780596 531.33701152 590.30224863c0 10.68061114-8.66015771 19.33435459-19.33863134 19.33435459-10.67847363 0-19.33328584-8.65374346-19.33328584-19.33435458l0-188.18444181L305.7196502 402.11780596c-10.68061114 0-19.33435459-8.65908809-19.3343546-19.33756172 0-10.67847363 8.65374346-19.33435459 19.33435459-19.33435459l186.94437539 0 1e-8-185.69896348c0-10.67954238 8.65481221-19.33863135 19.33328584-19.33863135 10.67954238 0 19.33863135 8.65908809 19.33863135 19.33863135L531.33594278 363.44588965 718.27604141 363.44588965c10.67954238 0 19.33863135 8.65588184 19.33863135 19.33435459C737.61467276 393.45871787 728.95558379 402.11780596 718.27604141 402.11780596z"  horiz-adv-x="1024" />

    
    <glyph glyph-name="dianhua1" unicode="&#59077;" d="M605.10344785 816.00899559c-2.24887588 0.449775-4.49775088 0.89954999-6.74662587 0.89955001-19.79010527 0.89954999-37.33133467-13.04347852-41.37931055-32.38380791-2.24887588-10.79460263 0-21.58920528 5.84707588-30.5847079s15.29235353-15.29235353 25.63718203-17.5412294c85.45727109-17.5412294 158.77061455-67.4662667 206.89655185-140.32983516 48.12593731-72.86356846 64.76761582-160.11994043 47.22638643-245.57721151-2.24887588-10.79460263 0-21.58920528 5.84707675-30.58470704s15.29235353-15.29235353 25.63718114-17.54122939c2.24887588-0.449775 4.49775088-0.89954999 6.74662678-0.89955 8.54572676-0.449775 16.6416794 1.79910087 23.83808115 6.74662587 8.99550263 5.84707675 15.29235353 15.29235353 17.54122939 25.63718203 45.42728643 220.38980537-96.70164961 436.73163398-317.09145497 482.1589204z m69.71514258-609.44527704c2.24887588-1.349325 55.77211406-35.98200878 97.15142461-78.26087021 15.29235353-16.19190439 41.37931055-42.72863555 40.92953555-73.76311846-0.449775-21.13943028-12.59370352-42.27886055-36.43178467-64.76761582-5.84707675-5.84707675-59.37031494-55.77211406-145.27736103-55.77211406-23.38830615 0-47.67616231 3.59820087-71.51424259 11.24437763-25.18740615 7.64617676-50.82458731 19.34033028-76.46176933 35.0824588-100.29985049 58.92053994-177.21139394 135.38230928-250.97451328 246.92653652C106.30284893 419.30734629 102.70464805 583.4752626 103.15442305 614.50974551 103.15442305 757.53823066 222.34482793 813.76011973 235.83808057 819.60719648 254.72863584 828.15292325 270.92053935 832.650675 285.76311875 832.650675c7.19640176 0 13.94302852-0.89954999 20.68965528-3.14842588 13.04347852-4.04797588 31.48425791-14.39280352 43.62818555-40.92953555 16.6416794-35.98200878 32.38380791-87.70614697 43.17841054-141.67916015 11.24437763-56.22188906-20.23988028-71.96401758-50.37481231-87.25637198h-1.349325s-53.97301318-22.48875527-63.41829169-26.53673203c-9.44527763-4.04797588-13.94302852-14.39280352-10.79460265-23.83808027C289.36131963 443.59520244 322.19490254 375.22938574 363.12443809 312.26086992c40.47976055-62.06896582 88.15592197-119.64017989 138.53073428-165.96701719 3.59820087-3.14842588 8.09595175-4.94752588 13.04347851-4.94752588h1.7991c5.39730176 0.449775 10.34482763 3.14842588 13.49325353 7.19640177 8.09595175 10.34482763 20.68965527 25.63718115 34.18290877 38.23088466 25.18740615 23.83808115 47.67616231 35.53223378 69.26536758 35.53223379 5.84707675 0 11.69415263-0.89954999 17.54122939-2.69865088 5.39730176-1.79910087 14.39280352-6.29685177 23.83808028-13.04347764zM504.80359824 483.17541211a40.02998467 40.02998467 0 0 0-25.63718115 17.5412294c-5.84707675 8.99550263-8.09595175 19.79010527-5.84707676 30.58470791 4.04797588 19.34033028 21.58920528 33.28335791 41.37931055 32.3838079 2.24887588 0 4.49775088-0.449775 6.74662675-0.89955 94.00299873-19.34033028 154.72263867-111.99400313 135.38230841-205.99700185-2.24887588-10.34482763-8.54572676-19.79010527-17.5412294-25.63718115-7.19640176-4.49775088-15.29235353-6.74662675-23.83808115-6.74662676-2.24887588 0-4.49775088 0.449775-6.74662588 0.89955a40.02998467 40.02998467 0 0 0-25.63718203 17.54122939c-5.84707675 8.99550263-8.09595175 19.79010527-5.84707588 30.58470792 4.94752588 24.28785615 0.449775 49.4752623-13.49325352 70.16491757-13.94302852 20.23988028-34.63268378 34.63268378-58.92053993 39.58020967z m41.82908554 127.28635664c-22.03898028 4.49775088-35.98200878 26.08695615-31.4842579 47.67616231 4.04797588 19.34033028 21.58920528 33.28335791 41.37931055 32.38380789 2.24887588 0 4.49775088-0.449775 6.74662675-0.89954999 76.01199433-15.74212852 141.67916016-60.26986494 184.8575707-125.48725664 42.72863555-65.2173917 58.02098994-143.02848604 42.27886055-219.04047949a40.02998467 40.02998467 0 0 0-17.5412294-25.63718116c-7.19640176-4.49775088-15.29235353-7.19640176-23.83808115-6.74662675-2.24887588 0-4.49775088 0.449775-6.74662589 0.89955-22.03898028 4.49775088-35.98200878 26.08695615-31.48425789 47.67616231 11.24437763 54.87256406 0.449775 111.09445313-30.58470791 158.32083954-31.03448291 47.22638643-78.26086933 79.61019521-133.58320841 90.85457198z"  horiz-adv-x="1024" />

    
    <glyph glyph-name="panel" unicode="&#59012;" d="M491.266 230.808c-19.564 0-38.772 5.075-57.091 15.083-28.51 15.575-326.123 189.452-338.778 196.847l-1.343 0.832c-4.595 3.011-27.595 19.456-29.208 47.466-0.733 12.747 2.874 31.683 24.228 49.5l2.529 2.11 402.605 210.444c6.484 4.038 25.806 14.559 51.127 14.559 18.049 0 35.198-5.16 50.974-15.339 37.943-24.478 331.77-207.44 334.733-209.286l0.589-0.376c4.937-3.232 29.563-20.836 29.465-50.071-0.045-13.561-5.596-33.272-31.782-50.167-29.96-19.33-345.514-178.075-386.344-198.597-6.25-3.615-25.053-13.005-51.704-13.005zM130.176 493.528c35.548-20.765 307.381-179.522 333.435-193.756 9.19-5.020 18.494-7.567 27.654-7.567 11.254 0 19.254 3.868 20.804 4.677l1.514 1.049 0.844 0.252c139.635 70.176 353.53 178.712 380.393 195.065-36.099 22.48-295.351 183.954-331.798 207.468-5.77 3.723-11.557 5.533-17.688 5.533-9.917 0-18.060-4.861-18.13-4.91l-1.61-1.124-395.418-206.687zM955.967 355.031c0 16.404-14.1 29.71-31.493 29.71-7.566 0-14.505-2.517-19.934-6.715l-0.136 0.203c-21.338-13.42-245.852-124.473-391.554-195.848l-0.863-0.26-1.55-1.043c-3.418-1.821-23.625-11.303-50.297 2.901-27.615 14.705-324.165 183.55-344.872 195.346-5.366 4.004-12.14 6.398-19.513 6.398-17.394 0-31.494-13.306-31.494-29.71 0-12.142 7.727-22.578 18.792-27.185l-0.046-0.075c12.983-7.395 318.293-181.263 347.534-196.833 20.681-11.014 40.76-14.965 58.464-14.965 22.723 0 41.536 6.51 52.688 12.956 41.796 20.476 356.866 174.976 394.766 197.643 11.446 4.449 19.508 15.073 19.508 27.477zM955.967 237.176c0 16.409-14.1 29.71-31.493 29.71-7.566 0-14.505-2.517-19.934-6.711l-0.136 0.202c-21.338-13.418-245.852-124.476-391.554-195.85l-0.863-0.26-1.55-1.044c-3.418-1.821-23.625-11.302-50.297 2.902-27.615 14.705-324.165 183.555-344.872 195.345-5.366 4.004-12.14 6.4-19.513 6.4-17.394 0-31.494-13.303-31.494-29.71 0-12.144 7.727-22.579 18.792-27.187l-0.046-0.074c12.983-7.395 318.293-181.263 347.534-196.833 20.681-11.015 40.76-14.966 58.464-14.966 22.723 0 41.536 6.51 52.688 12.957 41.796 20.476 356.866 174.975 394.766 197.642 11.446 4.449 19.508 15.073 19.508 27.477z"  horiz-adv-x="1024" />

    
    <glyph glyph-name="lingdang-" unicode="&#58964;" d="M621.50000029 66.50000038999997a110.00000039 110.00000039 0 0 0-219.9999999 0z m-36.50000009 627.99999961a73.50000029 73.50000029 0 0 1-146.50000049 0V683.99999971a284.0000001 284.0000001 0 0 1-183.49999981-267.49999951v-100.0000002s0-141.00000029-36.5000001-143.4999999a34.9999998 34.9999998 0 0 1-36.50000009-36 36.5000001 36.5000001 0 0 1 36.50000009-36h586.5000003a36 36 0 1 1 0 72c-36.5000001 0-36.5000001 143.4999999-36.5000001 143.4999999v100.0000002A280.0000002 280.0000002 0 0 1 585.00000019 683.99999971v10.50000029zM920.49999981 506.5000002A41.0000001 41.0000001 0 0 0 882.00000019 534.00000029a399.9999999 399.9999999 0 0 1-177.50000039 199.99999952 41.0000001 41.0000001 0 0 0-15.9999996 53.99999999 41.5000002 41.5000002 0 0 0 55.99999951 16.00000049 481.5 481.5 0 0 0 214.00000048-241.50000058 41.0000001 41.0000001 0 0 0-38.50000048-55.99999952zM103.50000019 507.99999961a41.5000002 41.5000002 0 0 0-15.50000038 3.00000058 41.0000001 41.0000001 0 0 0-22.5 53.49999991A482.50000019 482.50000019 0 0 0 275.50000039 801.9999999 41.5000002 41.5000002 0 0 0 331.4999999 783.9999999a41.0000001 41.0000001 0 0 0-15.49999951-55.99999951A399.9999999 399.9999999 0 0 1 141.99999981 534.00000029a41.5000002 41.5000002 0 0 0-38.49999962-26.00000068z"  horiz-adv-x="1024" />

    
    <glyph glyph-name="daishoufei" unicode="&#58881;" d="M684.3961902 174.30857156000002c32.09142844-12.82285687 51.29142844-64.11428531 38.46857157-96.20571468-25.64571469-38.46857156-70.56-25.64571469-83.38285688-25.64571375l-134.67428625 44.84571375v-12.82285688l115.40571469-44.84571469c19.26857156-6.44571469 96.27428531-12.89142844 121.92 38.4 6.37714312 12.89142844 12.82285687 38.53714313-6.44571469 70.62857157L985.90476177 270.51428531c32.02285688 12.82285687 83.38285688 0 102.58285687-32.09142843 19.2-38.4 0-96.20571469-51.29142843-109.02857157l-346.42285688-179.58857062-384.82285688 76.93714219H190.47619021V283.33714311999995L338.04190489 315.42857156l346.28571375-141.12zM72.60190489 332.70857156v-320.77714312c0-25.64571469 19.26857156-51.29142844 51.36-51.29142844 25.64571469 0 51.29142844 19.2 51.29142844 51.29142844V332.70857156c0 25.64571469-25.64571469 51.29142844-51.29142844 51.29142844a50.60571469 50.60571469 0 0 1-51.36-51.29142844zM741.79047646 307.06285687h-15.49714313c-6.17142844 0-12.34285687-0.68571469-17.34857156 4.32-5.00571469 4.38857156-5.00571469 11.24571469-5.00571375 17.41714313V443.86285687H568.71619021A34.14857156 34.14857156 0 0 0 533.33333333 478.69714312c0 24.89142844 22.97142844 24.89142844 35.38285688 24.89142844h135.22285781v64.04571375H568.71619021C546.36190489 567.63428531 533.33333333 578.81142844 533.33333333 598.1485715599999c0 8.70857156 3.70285688 29.82857156 35.38285688 29.82857157H670.47619021L560.07619021 738.65142844c-9.39428531 9.32571469-19.26857156 19.88571469-19.26857157 31.74857156 0 5.62285688 2.46857156 10.56 6.17142938 14.33142844a36.27428531 36.27428531 0 0 0 51.49714218 0l135.90857157-136.86857157 135.90857156 136.86857157a36.27428531 36.27428531 0 0 0 51.42857156 0c16.18285688-16.8-3.08571469-36.13714313-13.57714312-46.08l-110.46857156-110.67428532h101.76c31.61142844 0 35.38285688-20.57142844 35.38285781-29.89714312 0-19.2-13.02857156-30.44571469-35.38285781-30.44571469h-135.29142844v-64.04571375h135.29142844c12.34285687 0 35.38285688 0 35.38285781-24.89142844 0-20.57142844-14.88-34.83428531-35.38285781-34.83428625h-135.29142844v-115.06285687c0-4.93714313-0.61714313-11.79428531-5.55428531-16.8-5.00571469-4.32-10.56-4.93714313-16.8-4.93714313z"  horiz-adv-x="1170" />

    
    <glyph glyph-name="fuwu" unicode="&#58920;" d="M712.3424 521.1648a26.0064 26.0064 0 0 1-9.216 17.808 26.184 26.184 0 0 1-16.8816 6.1728 26.1888 26.1888 0 0 1-20.0496-9.3072l-154.224-182.9424-154.2816 183.0048a26.184 26.184 0 0 1-36.9696 2.472 26.1312 26.1312 0 0 1-3.0336-36.312l174.2544-206.6784c0.3168-0.384 0.6816-0.7152 1.1424-1.1184l0.3936-0.4368c0.4992-0.5472 1.0128-1.0992 1.7664-1.7376 0.168-0.1296 0.3408-0.2496 0.5616-0.4032 0.3888-0.3024 0.7968-0.5808 1.4352-1.0032 1.4208-0.984 2.9904-1.8528 4.7184-2.5872 1.1424-0.4752 2.2992-0.8592 3.8448-1.2528 0.36-0.1008 0.72-0.2064 1.0896-0.2736 1.8-0.3648 3.4704-0.5424 5.088-0.5424H512c1.6272 0 3.2976 0.1776 5.1792 0.5616 0.3024 0.072 0.6192 0.144 1.3344 0.3408a26.3616 26.3616 0 0 1 5.1936 1.9296c1.0224 0.5232 2.016 1.1136 3.3168 2.016 0.4176 0.2784 0.8208 0.5424 1.1808 0.8352l0.6672 0.4944c0.6288 0.5184 1.1616 1.1088 1.6944 1.6992l0.3024 0.3168c0.4128 0.3552 0.8064 0.72 1.1328 1.1232l174.264 206.6928a26.0352 26.0352 0 0 1 6.0768 19.128zM951.9536 549.672l-0.4272 0.4608c-4.6896 4.9248-15.2256 16.2624-29.1744 31.2576l-1.4352 1.536c-45.4128 48.8256-121.416 130.536-156.6384 165.48-13.9872 13.8912-31.3872 31.176-64.3008 32.3616-6.8208 0.2304-41.9424 0.3312-107.3808 0.3312-55.3296 0-122.0688-0.0816-174.9744-0.1584l-65.8224-0.1056c-14.3136-0.024-22.0032-0.0384-26.136-0.5184v0.48c-16.9872 0-39.9024-3.6864-66.5712-32.3568-20.064-21.6048-51.5328-55.0464-84.7488-90.3024l-3.5376-3.7536c-38.7072-41.1408-78.7392-83.6592-97.6464-104.352-34.0416-36.2544-34.8576-86.8848-1.944-132.3552l1.9008-2.2992c35.3808-37.896 110.568-117.3888 197.6256-209.4576l14.7936-15.648a360816.6912 360816.6912 0 0 0 161.136-170.4288c27.2928-28.9584 47.7024-32.9424 65.7024-32.9424 17.9712 0 38.3712 3.984 65.7168 32.9136 54.5904 57.7968 108.4128 114.7008 158.1744 167.3136l2.8512 3.0096c82.8 87.5136 168.4128 178.0224 212.8464 225.5664 29.0352 32.2464 37.3008 92.6112-0.0096 133.968z m-411.4512-499.7376c-15.888-16.8048-22.6752-16.8048-28.1232-16.8048-5.1696 0-12.2496 0-28.0992 16.8a375452.064 375452.064 0 0 1-164.0592 173.544l-12.2592 12.9504c-88.9392 94.0416-165.7776 175.2864-202.5408 214.6464-12.2832 17.5056-22.3104 43.0176-1.008 65.6976C124.64 538.896 168.464 585.4272000000001 207.128 626.472l0.336 0.36c32.0928 34.08 65.2848 69.3216 86.1648 91.8336 14.7792 15.9024 23.184 15.9024 28.752 15.9024 0 0 159.0432 0.3216 271.6656 0.3216 81.0624 0 103.176-0.168 107.4432-0.312 11.4384-0.408 15.8352-3.6816 29.7312-17.496 35.0496-34.7616 111.9936-117.4896 157.968-166.92l7.44-7.992c11.2128-12.0432 19.6704-21.1296 23.7648-25.4496 17.3088-19.3872 14.0208-48.9648 0.144-64.368-43.6896-46.7616-127.4448-135.2976-216.1104-229.0176a399580.992 399580.992 0 0 1-163.9248-173.4z"  horiz-adv-x="1024" />

    
    <glyph glyph-name="yuanchenglianjie" unicode="&#58895;" d="M1042.87179458 73.84615406H193.6410252c-73.84615406 0-140.30769188 59.07692344-140.30769187 140.30769188V723.69230813C53.33333333 804.92307656 112.41025677 864 193.6410252 864h716.30769282c73.84615406 0 140.30769188-59.07692344 140.30769187-140.30769188v-649.84615406zM193.6410252 790.15384594c-36.92307656 0-66.46153875-29.53846125-66.46153781-66.46153781v-509.53846219c0-36.92307656 29.53846125-66.46153875 66.46153781-66.46153781h782.76923157V723.69230813c-7.38461531 36.92307656-36.92307656 66.46153875-66.46153875 66.46153781H193.6410252zM252.71794864-7.384615309999958h590.76923063v-73.84615406h-590.76923063zM503.79487208 332.30769188h339.69230719v-73.84615313H503.79487208zM304.41025677 273.23076936999996l-51.69230813 51.69230719 147.69230813 147.69230813L237.94871802 642.46153875l51.69230718 51.69230719 214.15384688-221.53846125z"  horiz-adv-x="1102" />

    
    <glyph glyph-name="zixun" unicode="&#58911;" d="M908.51070078 315.96037529c23.46193916 45.98540156 35.66214844 95.72471367 35.66214756 146.40250254s-12.2002084 100.41710098-35.66214756 146.40250254c-22.52346153 44.10844628-54.43169941 84.46298203-95.72471367 118.2481752-82.58602676 69.44734073-192.3879041 106.98644443-309.69760166 106.98644443-116.37121992 0-226.17309727-38.47758047-309.69760167-106.98644443-40.35453574-33.78519317-73.20125127-74.13972891-95.72471279-118.2481752-23.46193916-45.98540156-35.66214844-95.72471367-35.66214843-146.40250254 0-90.09384786 38.47758047-177.37226279 108.86339971-244.94264824 0.93847763-2.81543291 8.44629786-19.70802949 6.56934257-82.58602764-0.93847763-37.53910283-4.69238818-71.32429599-4.69238731-72.26277363l-5.63086581-55.37017705 46.9238792 30.96976025s30.03128261 19.70802949 62.87799726 38.47758047c55.37017705 30.96976026 74.13972891 34.7236708 77.89363945 35.66214844 46.9238792-14.07716367 96.66319042-21.58498477 147.34098018-21.58498477 116.37121992 0 226.17309727 38.47758047 309.69760167 106.98644444 42.23149102 33.78519317 74.13972891 73.20125127 96.6631913 118.24817519z m-404.4838377-172.67987461c-45.98540156 0-91.03232549 6.56934346-134.20229414 19.70802862-3.75391055 0.93847763-8.44629786 1.87695527-13.13868603 1.87695527-14.07716367 0-38.47758047-4.69238818-105.10948916-42.23149102-7.50782021-3.75391055-14.07716367-8.44629786-20.64650625-12.20020839 0 8.44629786 0.93847763 18.76955185 0.93847763 28.15432734 1.87695527 82.58602676-10.32325312 105.10948916-22.5234624 116.37121992-60.06256523 57.24713232-92.90928076 131.38686123-92.90928075 207.40354541 0 175.49530752 173.61835224 319.08237715 386.65276347 319.08237803 213.03441123 0 386.65276347-142.648592 386.65276348-319.08237803 0.93847763-176.43378516-172.67987461-319.08237715-385.71428585-319.08237715zM1132.8068419 390.1001042c0 53.49322178-13.13868604 105.10948916-38.47758047 152.971846-24.4004168 45.98540156-59.1240876 87.27841494-104.17101153 121.0636081-11.26173076 9.38477549-28.15432734 6.56934346-37.53910282-4.69238819s-6.56934346-28.15432734 4.6923873-37.5391037c38.47758047-30.03128261 68.50886309-64.75495342 89.15537021-104.17101153 21.58498477-40.35453574 32.84671553-83.5245044 32.84671553-127.63295068 0-76.01668417-32.84671553-149.21793545-92.90928077-207.40354542-12.2002084-11.26173076-24.4004168-34.7236708-22.52346152-116.37121992 0-9.38477549 0.93847763-18.76955185 0.93847764-28.15432734-8.44629786 4.69238818-16.89259658 10.32325312-26.27737207 15.01564131-22.52346153 12.2002084-41.29301338 21.58498477-57.2471332 28.15432735-25.33889443 10.32325312-42.23149102 13.13868604-55.37017705 9.38477548-43.16996865-13.13868604-88.21689258-19.70802949-134.20229414-19.70802861-22.52346153 0-45.04692393 1.87695527-66.63190782 4.6923873-14.07716367 1.87695527-28.15432734-7.50782021-30.03128262-22.52346152-1.87695527-14.07716367 7.50782021-28.15432734 22.52346153-30.03128262 24.4004168-3.75391055 49.73931211-5.63086582 74.13972891-5.63086581 50.67778974 0 100.41710098 7.50782021 147.34098017 21.58498476 3.75391055 0 22.52346153-4.69238818 77.89363946-35.66214843 32.84671553-18.76955185 62.87799815-38.47758047 62.87799814-38.47758047l46.9238792-30.96976026-5.63086582 55.37017705s-3.75391055 33.78519317-4.69238818 71.324296c-1.87695527 63.81647578 5.63086582 80.70907237 6.56934345 82.58602763 71.32429599 70.38581836 109.80187734 156.72575567 109.80187647 246.81960352zM292.86940713 518.67153252c-28.15432734 0-50.67778974-22.52346153-50.67778887-50.67778887 0-28.15432734 22.52346153-50.67778974 50.67778887-50.67778974 28.15432734 0 50.67778974 22.52346153 50.67778974 50.67778974 0 28.15432734-22.52346153 50.67778974-50.67778974 50.67778887zM504.96534072 518.67153252c-28.15432734 0-50.67778974-22.52346153-50.67778975-50.67778887 0-28.15432734 22.52346153-50.67778974 50.67778975-50.67778974 28.15432734 0 50.67778974 22.52346153 50.67778975 50.67778974 0 28.15432734-22.52346153 50.67778974-50.67778975 50.67778887zM706.73802031 518.67153252c-28.15432734 0-50.67778974-22.52346153-50.67778887-50.67778887 0-28.15432734 22.52346153-50.67778974 50.67778887-50.67778974 28.15432734 0 50.67778974 22.52346153 50.67778975 50.67778974 0 28.15432734-23.46193916 50.67778974-50.67778975 50.67778887z"  horiz-adv-x="1220" />

    
    <glyph glyph-name="houtai" unicode="&#58906;" d="M1152.53697192 40.35963904000005c0-43.14295789-36.66747326-78.23345086-81.72491225-78.23463904H171.85110043C126.78653158-37.875 90.125-2.782130670000015 90.125 40.35963904000005V727.64749082C90.125 770.78569519 126.78890875 805.875 171.8522886 805.875h898.95858289C1115.86949783 805.875 1152.53697192 770.78450703 1152.53697192 727.64749082v-687.28785178zM155.35757019 719.20999082c0-19.69859125 15.95757019-35.6537851 35.65140875-35.6537851 19.68670789 0 35.65140876 15.95638202 35.65140876 35.65259692 0 19.68670789-15.96232371 35.65140876-35.65140876 35.65140876-19.69383774 0-35.65140876-15.96351269-35.65140875-35.65140876z m106.95422543 0c0-19.69859125 15.95757019-35.6537851 35.65140876-35.6537851 19.68670789 0 35.65140876 15.95638202 35.65140793 35.65259692 0 19.68670789-15.96232371 35.65140876-35.65140793 35.65140876-19.69383774 0-35.65140876-15.96351269-35.65140876-35.65140876z m106.95422545 0c0-19.69859125 15.95757019-35.6537851 35.65140874-35.6537851 19.68670789 0 35.65140876 15.95638202 35.65140793 35.65259692 0 19.68670789-15.96232371 35.65140876-35.65140793 35.65140876-19.69383774 0-35.65140876-15.96351269-35.65140875-35.65140876zM151.92077457 47.68838068000002c0-13.12684826 10.64075702-23.76760528 23.7676061-23.76760611h891.28521057c13.12684826 0 23.76760528 10.64194519 23.76760612 23.7676061V627.6179578900001c0 13.12684826-10.64075702 23.76760528-23.76760612 23.76760528H175.68838068c-13.12684826 0-23.76760528-10.64075702-23.76760611-23.76760528v-579.92957721z m47.83230615 224.59793115l130.39264956 130.39264957L199.75308072 533.07161096v79.31962986a24.85378509 24.85378509 0 0 0 15.26949866-7.19683073l184.86800134-184.86919034c9.74590658-9.74471842 9.74590658-25.54661096 0-35.29251753L215.02376755 200.16470086000004a24.85378509 24.85378509 0 0 0-15.27068683-7.19683153v79.3184425z m564.05519385-110.21632938h-311.35563336v61.79577457h311.35563336v-61.79577457z"  horiz-adv-x="1289" />

    
    <glyph glyph-name="shipin" unicode="&#59101;" d="M962 91.5V676.5a112.5 112.5 0 0 1-112.5 112.5H219.5a112.5 112.5 0 0 1-112.5-112.5v-585a112.5 112.5 0 0 1 112.5-112.5h630a112.5 112.5 0 0 1 112.5 112.5z m45 0a157.5 157.5 0 0 0-157.5-157.5H219.5a157.5 157.5 0 0 0-157.5 157.5V676.5a157.5 157.5 0 0 0 157.5 157.5h630a157.5 157.5 0 0 0 157.5-157.5v-585zM107 564h90v45H107zM107 294h90v45H107zM107 429h90v45H107zM107 159h90v45H107zM872 564h90v45h-90zM872 294h90v45h-90zM872 429h90v45h-90zM872 159h90v45h-90zM422 523.4549999999999v-278.91c0-15.1425 8.145-20.97 15.39-16.29l211.815 139.5675c10.755 6.9525 11.1375 25.875 1.035 32.4l-213.3 139.41c-7.245 4.68-14.94-0.9225-14.94-16.1775z m39.42 53.955l213.345-139.455c37.8675-24.5025 36.63-83.475-0.9675-107.82l-211.815-139.5675C421.775 164.625 377 196.57500000000005 377 244.54499999999996V523.4549999999999c0 47.9925 44.19 79.9875 84.42 53.955z"  horiz-adv-x="1075" />

    
    <glyph glyph-name="fangwen" unicode="&#58984;" d="M946.11466667-12.936000000000035c-24.936 35.808-46.824 63.192-71.112 83.304-23.952 20.064-52.776 32.256-83.064 31.968-27.888-0.096-54.84-8.856-84.144-22.584-29.4-13.824-61.68-33.144-100.416-57.48-36.48-22.824-64.128-29.616-84.648-29.616-29.904 0.144-49.584 14.064-64.68 30.336 93.384 5.064 177.048 51.24 237.336 121.368 64.176 74.52 103.128 176.304 103.176 288.024-0.048 111.744-39 213.504-103.176 288.048-63.984 74.448-154.416 121.92-254.712 121.848C340.33066667 842.328 249.89866667 794.856 185.89066667 720.408c-64.176-74.52-103.128-176.304-103.152-288.048 0.024-111.744 38.976-213.504 103.152-288.024 49.68-57.792 115.368-99.24 189.216-114.888 1.584-3.744 11.184-26.712 33.12-51.096 22.32-25.128 60.84-52.584 114.12-52.584 0.096 0 0.24 0 0.384 0 35.808 0 76.032 12.144 120.24 39.888 37.92 23.856 68.616 42 93.288 53.568 24.744 11.712 42.744 16.32 55.68 16.224 13.872-0.288 24.336-3.744 40.584-16.776 15.936-12.984 35.352-36.048 58.68-69.744 10.512-15.192 31.368-18.936 46.512-8.4C952.90666667-48.936000000000035 956.65066667-28.128000000000043 946.11466667-12.936000000000035zM462.97066667 774.264C533.00266667 768 596.41066667 732.648 644.74666667 676.7280000000001c29.304-33.936 52.584-75.384 67.68-121.776L462.97066667 554.952 462.97066667 774.264zM236.55466667 676.7280000000001c48.312 55.92 111.744 91.296 181.8 97.536l0-219.336L168.85066667 554.928C183.97066667 601.344 207.25066667 642.792 236.55466667 676.7280000000001zM236.55466667 188.01599999999996c-53.28 61.68-86.952 148.224-86.928 244.344 0 18.984 1.344 37.584 3.888 55.728l574.296 0c2.496-18.144 3.84-36.744 3.84-55.728 0.048-96.12-33.648-182.664-86.904-244.392-53.4-61.776-125.256-98.616-204.072-98.664C361.78666667 89.35199999999998 289.97866667 126.19200000000001 236.55466667 188.01599999999996z"  horiz-adv-x="1024" />

    
    <glyph glyph-name="jiekou" unicode="&#59135;" d="M92 654.0046875h157.5009375v-44.998125c0-24.7771875 17.6990625-44.998125 39.36-44.998125h131.2846875c21.6525 0 39.36 20.221875 39.36 44.998125v44.998125h472.5028125a30.0046875 30.0046875 0 0 1 0 60.0084375H459.4971875v44.998125c0 24.77625-17.7 44.9971875-39.36 44.9971875H288.8609375c-21.6525 0-39.36-20.2209375-39.36-44.9971875v-44.998125H92a30.0046875 30.0046875 0 0 1 0-60.009375zM302.0046875 744h104.9971875v-120H302.0046875V744zM932 414.0046875H774.4990625v44.9971875c0 24.7246875-17.6990625 44.998125-39.36 44.998125H603.854375c-21.6525 0-39.36-20.281875-39.36-44.998125v-44.9971875H92a30.0046875 30.0046875 0 0 1 0-60.009375h472.5028125v-44.9971875c0-24.71625 17.7-44.998125 39.36-44.998125h131.2846875c21.6525 0 39.36 20.281875 39.36 44.998125v44.9971875H932.009375a30.0046875 30.0046875 0 1 1-0.0084375 60.009375zM721.9953125 324H616.998125V444h104.9971875v-120zM932 113.72531249999997v0.27H459.4971875v44.998125c0 24.7153125-17.7 44.998125-39.36 44.998125H288.921875c-21.6609375 0-39.36-20.2828125-39.36-44.998125v-44.998125H92v-0.27a30.0046875 30.0046875 0 0 1 0-60.009375c0.9253125 0 1.798125 0.18375 2.705625 0.2709375H249.5v-44.998125c0-24.7153125 17.6990625-44.9971875 39.36-44.9971875h131.2846875c21.6525 0 39.36 20.281875 39.36 44.9971875v44.998125h469.78875c0.9075-0.0871875 1.78125-0.2709375 2.7140625-0.2709375a30.0046875 30.0046875 0 1 1-0.0084375 60.009375zM407.001875 24H302.0046875V144h104.9971875v-120z"  horiz-adv-x="1024" />

    
    <glyph glyph-name="jiantou-down" unicode="&#59291;" d="M483.74400166 132.28974462999997L73.58450644 582.1594546900001a37.92580401 37.92580401 0 0 0 0 53.4756665 37.52926787 37.52926787 0 0 0 53.2207503 0l385.43266494-422.7070166L897.75555752 635.6917693400001a37.44429609 37.44429609 0 0 0 53.16410303-1e-8 37.86915586 37.86915586 0 0 0 0-53.4756665l-410.15949522-449.86971006a43.30735927 43.30735927 0 0 0-57.01616367-0.05664814z"  horiz-adv-x="1024" />

    
    <glyph glyph-name="jiantou-left" unicode="&#59292;" d="M260.28974463 412.25599834L710.15945469 822.41549356a37.92580401 37.92580401 0 0 0 53.4756665 0 37.52926787 37.52926787 0 0 0 0-53.2207503l-422.7070166-385.43266494L763.69176934-1.7555575200000249a37.44429609 37.44429609 0 0 0-1e-8-53.16410303 37.86915586 37.86915586 0 0 0-53.4756665 0l-449.86971006 410.15949522a43.30735927 43.30735927 0 0 0-0.05664814 57.01616367z"  horiz-adv-x="1024" />

    
    <glyph glyph-name="jiantou-up" unicode="&#59293;" d="M540.25599834 635.71025537L950.41549356 185.84054531000004a37.92580401 37.92580401 0 0 0 0-53.4756665 37.52926787 37.52926787 0 0 0-53.2207503 0l-385.43266494 422.7070166L126.24444248 132.30823066000005a37.44429609 37.44429609 0 0 0-53.16410303 1e-8 37.86915586 37.86915586 0 0 0 0 53.4756665l410.15949522 449.86971006a43.30735927 43.30735927 0 0 0 57.01616367 0.05664814z"  horiz-adv-x="1024" />

    


  </font>
</defs>
</svg>
