<?xml version="1.0" standalone="no"?>
<!DOCTYPE svg PUBLIC "-//W3C//DTD SVG 1.1//EN" "http://www.w3.org/Graphics/SVG/1.1/DTD/svg11.dtd" >
<!--
2013-9-30: Created.
-->
<svg>
<metadata>
Created by iconfont
</metadata>
<defs>

<font id="topbar-sidebar-iconfont" horiz-adv-x="1024" >
  <font-face
    font-family="topbar-sidebar-iconfont"
    font-weight="500"
    font-stretch="normal"
    units-per-em="1024"
    ascent="896"
    descent="-128"
  />
    <missing-glyph />
    
    <glyph glyph-name="x" unicode="x" horiz-adv-x="1001"
d="M281 543q-27 -1 -53 -1h-83q-18 0 -36.5 -6t-32.5 -18.5t-23 -32t-9 -45.5v-76h912v41q0 16 -0.5 30t-0.5 18q0 13 -5 29t-17 29.5t-31.5 22.5t-49.5 9h-133v-97h-438v97zM955 310v-52q0 -23 0.5 -52t0.5 -58t-10.5 -47.5t-26 -30t-33 -16t-31.5 -4.5q-14 -1 -29.5 -0.5
t-29.5 0.5h-32l-45 128h-439l-44 -128h-29h-34q-20 0 -45 1q-25 0 -41 9.5t-25.5 23t-13.5 29.5t-4 30v167h911zM163 247q-12 0 -21 -8.5t-9 -21.5t9 -21.5t21 -8.5q13 0 22 8.5t9 21.5t-9 21.5t-22 8.5zM316 123q-8 -26 -14 -48q-5 -19 -10.5 -37t-7.5 -25t-3 -15t1 -14.5
t9.5 -10.5t21.5 -4h37h67h81h80h64h36q23 0 34 12t2 38q-5 13 -9.5 30.5t-9.5 34.5q-5 19 -11 39h-368zM336 498v228q0 11 2.5 23t10 21.5t20.5 15.5t34 6h188q31 0 51.5 -14.5t20.5 -52.5v-227h-327z" />
    

    
    <glyph glyph-name="dns" unicode="&#59178;" d="M983.3270009327845 579.4563614930701c-2.7940853774046643-0.20473266603017837-5.423206304482853-0.5641195042414267-8.055273025316872-0.5670652979972565-37.588328324389565-0.0368224219478738-75.17518375190123 0.09279250330864196-112.75909338565705-0.14287099715775034-6.320200503133059-0.0397682157037037-8.389620616603564 2.1754686886803842-11.53130965719616 7.986046872054869-8.517762644982168 15.751159212422497-18.26097549238957 31.08401571151715-29.33126842679836 45.15607248311659-32.216673410633746 40.959789277936906-71.70209291377776 73.62569623633472-117.2749952133443 99.43968691867215 13.390105517124827-50.348033977766804 26.652069005871052-100.22621385147872 40.31613334228806-151.62442330319888-36.588231344285326 0-70.19090071703702 0-105.22080716448835 0-2.749898471067215 14.963159382737997-4.7397821531303155 30.77323447027709-8.638540188971195 46.09578069122633-12.074808605146774 47.415496293838125-24.766761002139916 94.67339262173937-37.66639185891907 141.8738459714019-0.7909456234403293 2.885404983835391-5.124208238266117 6.136088393393691-8.323340257097394 6.825404132257887-41.737478829476 9.01560178971742-83.71798564380794 9.270412949596706-126.18454842785185 5.147774588312757-18.190276442249655-1.7660033566200273-24.202641497898487-9.968566069728395-29.175141357739367-26.191052283083675-16.782187026962962-54.74315826146502-29.622902008625505-110.32439484646363-40.45311275193415-166.4623864513141-0.5803213698984909-3.009128321580247-4.222795348982166-7.719452537152263-6.501366819116598-7.757747855978052-31.718834265898487-0.5125681135144031-63.447978809942384-0.34613076631001366-96.88421083548971-0.34613076631001366 8.9743606771358 53.49266881211521 23.13479126141015 104.51970825060083 41.02017804993141 156.4628895471495-42.75377767523731-22.53384933522085-79.23596044431275-49.823682689229074-109.9164024112812-84.26001169488065-14.472684722392318-16.24752546027983-26.88478671258162-34.33175332731961-40.16442496386283-51.63829164282029-1.649644503264746-2.150429441755829-4.040156136120713-4.5689261152921805-4.132948639429355-6.941762985613168-0.5788484730205762-15.173783636279833-10.933313524762688-13.818718508598076-21.387935564203016-13.753911045969817-37.21126672364335 0.24450088173388204-74.42547924104251 0.09426540018655694-113.56624087475443 0.09426540018655694 27.353167919758572 65.95337639927571 65.67205309559397 122.6908370334376 115.80209833542936 171.35534987974762 88.98801067298766 86.38687478658983 195.7185371373388 135.85853512199725 319.1310936409547 144.43079495146227 265.7400547134156 18.462762364663917 450.4972932853114-155.78682988018656 510.8963755579698-315.1910944925322zM731.753268391155 129.7868362531467c-8.638540188971195-30.776180264032917-16.760093573794236-59.702402049404654-24.88164695861729-88.6286238347764 0.4654354134211249-0.6937344294979424 0.9323437237201646-1.3933604465075442 1.3977791371412893-2.0929864635171467 15.46394432122908 10.528266883336077 31.995738878946497 19.804571420444443 46.128184422540464 31.88674450998079 19.384795810238682 16.571562773421125 36.890175204257886 35.33037741054594 55.35882915643346 52.98599228611247 2.5392742175253775 2.428806951681756 5.965232355555555 5.561658611006858 9.005291511572015 5.586697857931413 44.680326791550065 0.36085973508916325 89.36507227373389 0.245973778611797 136.02791826295746 0.245973778611797-29.088240441942386-51.29952536089985-65.08584013818381-95.00184862551438-108.2107878266557-132.52684238415364-82.67517465424416-71.94659379551166-179.03356130431825-113.29817364297394-288.1825844422057-123.06495284042795-239.58877064603564-21.438014058052126-416.2494950800329 118.71843415370095-489.9930230666008 255.6227260590178 5.215527844696844 0 9.821276381936897 0 14.429970712932786 0 37.23777886744582 0 74.47850352864747-0.3196186225075445 111.71186370545954 0.23124480983264745 8.744588764181069 0.13108782213443068 14.695092150957473-2.5613676706941013 20.295046080790126-8.86389341129218 29.21490957344307-32.85885644940466 62.42431547979149-60.92196066431824 100.82126419015638-82.60889429473801 2.3345415514951986-1.3197156026117967 4.761875606299039-2.4774125486529486 8.067056200340192-4.187445823912208-9.055370005421123 31.846976294277088-17.833835397794235 62.72331354600822-26.921609134529486 94.69106738427432 34.8325382658107 0 68.07582080035117 0 100.56498013339917 0 8.894824245728394-31.729144544043894 17.471502765827157-63.1445620530919 26.590207336998628-94.40532538995883 3.51875064133882-12.06155253324554 7.863796431187929-23.933101369240052 12.716991643917694-35.51890821091907 1.3933604465075442-3.328746944087791 5.571968889152263-7.124402198474622 8.999399924060356-7.722398330908093 44.00132133083127-7.737127299687243 88.07334171180246-7.910929131281208 132.21753403979147-0.549390535462277 8.968469089624142 1.4949903310836754 14.25027729382716 4.698541040548696 16.88087111778326 14.136864234227712 10.930367731006859 39.2556475901893 22.530903541465022 78.3242372768834 34.269891658447186 117.34716716036212 0.885211023626886 2.942847962074074 4.761875606299039 7.074323704625514 7.307041411336076 7.115564817207132 30.70400831701508 0.4934204541015089 61.41538111841975 0.3196186225075445 95.39953078255142 0.3196186225075445zM383.16276429502335 519.2796866489767c19.727980782792866 0 38.461756172993134 0.2607027473909465 57.17196521314678-0.2813233036817558 2.7749377179917696-0.0795364314074074 6.249501452993141-3.430376828663923 8.040544056537723-6.158181846562414 40.60040243972565-61.774767956631 81.0137469759561-123.670313457251 121.47127841852398-185.53640102031272 1.4198725903100136-2.1666313074128944 2.9708330027544583-4.249307492784636 6.387953759517146-6.000581880625514 0 3.53347961011797 0 7.0728508077475984 0 10.606330417865568 0 58.74501907875994 0.20767845978600816 117.49445684815363-0.213570047297668 176.23800303003566-0.06480746262825787 9.161418580630999 2.5319097331358025 11.737515220104251 11.520999379050753 11.367818103747597 16.95746175543484-0.7010989138875171 33.96500200471879-0.20325976915226338 51.48805616127298-0.20325976915226338 0-106.9308404397476 0-212.63770357394787 0-319.57443560120714-20.037289127155006 0-39.734339075511656-0.26954012865843613-59.40193108631001 0.3196186225075445-2.6571059677585738 0.0795364314074074-5.80321369898491 4.0607766924115225-7.681157218326475 6.922615326200274-39.07595417108367 59.50356097088614-78.00167286062002 119.10727892947051-116.95537659083675 178.69037633176407-2.231438770041152 3.415647859884773-4.467296230716048 6.829822822891631-8.58404300448834 13.120565388466392 0-67.96829932826336 0-132.9775488287956 0-198.5420804523018-22.013916737316872 0-42.320745993130316 0-63.2432461439122 0-0.0029457937558299042 106.14725930069683-0.0029457937558299042 211.87032430055413-0.0029457937558299042 319.03830113764604zM1004.1257777458217 518.5830064257229c4.106436495626886-20.533655375012344 8.204035609986283-41.021650946809324 12.506367390375855-62.52594536436763-61.88081653184087 0-122.57889687071605 0-184.2579265302825 0 0-21.722283155489713 0-42.656566481294924 0-64.62040472476268 62.63346683645542 0 125.63515789238956 0 190.24967102964058 0 0-9.665149312877913 0.3137270349958847-18.392063314524005-0.05302428760493827-27.088046481733873-2.2167098012620023-52.888781092170106-7.766585237245541-105.18987633005212-27.06006144105349-155.14611973829355-2.6718349365377225-6.922615326200274-5.816469770886145-9.840424041349793-13.818718508598076-9.794764238134432-67.62216856195336 0.38442608513580245-135.2546474020521 0.2194616348093278-202.87976175776126 0.22093453168724275-3.0312217747489703 0-6.060970652620028 0-9.752050228674896 0 0 21.034440313503428 0 41.373673300631 0 63.07091720919615 62.78812100863648 0 125.72795039569822 0 189.2863964714842 0 0 21.97414852161317 0 42.61090667807956 0 64.15644220821947-63.194640546941 0-126.16540076843896 0-189.75477767866113 0 0 64.26249078342936 0 127.62209578069682 0 191.72698659818926 78.27121298927845 0 156.29939799370095 0 235.53241264425787 0zM16.791449088702393 517.8126813585735c62.88091351194513 0 122.65254171461179 0.5228783916598079 182.40649515474345-0.24450088173388204 26.00252148271056-0.3343475912866941 39.42650362802743-12.560864574858709 47.44790002515225-37.118474220334704 5.458555829552811-16.699704801799722 7.993411356444442-33.45979837559396 7.798988968559669-51.10952166364883-0.6510204200384088-59.08820405131413 0.3814802913799725-118.20733893706446-0.8822652298710562-177.27639532896566-0.737921335835391-34.47167853072153-17.799958769602195-43.31347848884499-39.103939211764065-48.308071801854595-16.732108533113852-3.9223243858875163-33.284523647122086-6.086009899544582-50.45408255297667-5.900424892927297-40.30729596102057 0.43450457898491074-80.62490220018655 0.4948933509794238-120.92630657369544-0.14434389403566528-8.631175704581617-0.13697940964609054-11.63293954177229 3.1195955874238677-14.213454871879284 10.347100567352538-23.763718228279835 66.55137253170918-31.89558189124828 135.12945116742932-25.53561317241152 205.2599631124719 3.153472215615912 34.786878462595325 8.847691545635115 69.34545790911385 13.457858773508915 104.49172320992042zM63.47638853109464 260.2707706676323c42.74199450021399 0 84.51629575163786 0 126.4261035158299 0 0 65.59546245794238 0 130.5354858052126 0 195.28550545523186-42.60796088432373 0-84.38668082638134 0-126.4261035158299 0 0-65.24491300099862 0-129.71213645045816 0-195.28550545523186z"  horiz-adv-x="1024" />

    
    <glyph glyph-name="dataworks" unicode="&#58957;" d="M830.71379287 582.2689655199999C795.37069004 726.7758624 665.92068945 834 511.55 834c-181.59827607 0-328.70689628-148.37069003-328.70689628-331.26724161a331.64482763 331.64482763 0 0 1 154.2413786-280.81034472c14.59655156 12.90517207 29.01724102 29.52931026 42.46034502 47.27586182a269.50344786 269.50344786 0 0 0-131.75689658 232.22586269c0 148.70689629 119.43103448 269.15689687 266.62758662 269.15689599 108.65172393 0 202.1741376-65.62241367 243.70344844-159.79655126 33.34655215-8.4413795 61.10172422-22.29310372 72.59482705-28.51551739zM562.68965498-30.98275868999997c143.50862109-43.13793076 302.55000029 15.25344786 380.20862109 149.76206895 90.80172422 157.26724102 35.86034443 358.85172393-122.5344832 450.2999997a331.60862109 331.60862109 0 0 1-334.83620654-1.26724131c7.20517237-18.66206865 16.40689629-38.11551768 26.27586211-56.97413789 81.04655214 49.31379316 186.34655214 53.81379317 274.96034472 2.65344873 128.78275869-74.35344815 173.37930996-238.00862109 99.78103476-365.48275869-54.78620713-94.89310312-159.67241367-143.08965527-262.83620742-130.86206895-24.27413818-24.6827584-50.32758604-41.64310372-61.01379316-48.13448291zM165.33448262 500.49827549C57.86206895 397.63448232 29.72930997 231.91551708999998 106.91724131 98.22413817999995c90.79655185-157.26724102 292.84655185-210.48103477 451.24137949-119.03275898a331.61896583 331.61896583 0 0 1 166.33448262 286.46379317l-62.43103477 1.35517235a269.49827549 269.49827549 0 0 0-135.24827519-230.92241396c-128.78275869-74.35344815-292.81034443-31.14827578-366.41379375 96.33103506-54.32069003 94.09137891-44.25000029 207.9 16.54655185 290.9482752-9.36206895 33.10344844-11.25 64.06551738-11.61206895 77.13103447zM449.41896582 491.83448262a25.65517237 25.65517237 0 0 1 35.01724131 9.37241366 25.5827584 25.5827584 0 0 1-9.37758604 34.97069005 25.65517237 25.65517237 0 0 1-35.02241455-9.36724131 25.5827584 25.5827584 0 0 1 9.38275928-34.97586241zM395.63103447 552.41379287c21.23793105 36.73448262 68.2758624 49.32413789 105.06206865 28.11206953 36.78620713-21.20689687 49.39137949-68.18793135 28.15344844-104.92241396-21.23793105-36.73965498-68.2758624-49.32931026-105.06206865-28.1172419-36.78620713 21.20689687-49.39655185 68.18793135-28.15344844 104.92758633zM413.57930997 188.79310341999997a25.61896582 25.61896582 0 0 1 25.6344829 25.60344873c0 14.1413792-11.47758662 25.60344785-25.6344829 25.60344785a25.61896582 25.61896582 0 0 1-25.6396544-25.60344785c0-14.1413792 11.48275898-25.60344785 25.6396544-25.60344873z m0-51.20689658c-42.48103448 0-76.91379346 34.3913792-76.91379258 76.81034531s34.43275898 76.81034443 76.91379258 76.81034443c42.47586211 0 76.91379346-34.3913792 76.91379345-76.81034443s-34.43793135-76.81034443-76.91379345-76.81034531zM685.28103418 341.59137949a25.5827584 25.5827584 0 0 1-9.3827584-34.97069004 25.65517237 25.65517237 0 0 1 35.01724131-9.37241367 25.5827584 25.5827584 0 0 1 9.38793076 34.9758624 25.65517237 25.65517237 0 0 1-35.01724131 9.36724131z m79.42758662 16.23620655c21.23793105-36.73965498 8.63793106-83.71551709-28.15344843-104.92758633-36.78620713-21.20689687-83.8241376-8.62241396-105.06206866 28.11724189-21.23793105 36.73448262-8.63793106 83.71034472 28.15344843 104.92241397 36.78620713 21.20689687 83.8241376 8.62241396 105.06206866-28.11206953z"  horiz-adv-x="1053" />

    
    <glyph glyph-name="gameshield" unicode="&#59168;" d="M743.29353443 432.37527666a59.05521778 59.05521778 0 0 0 59.27367112-58.81249109 59.05521778 59.05521778 0 0 0-59.27367112-58.81249224 59.05521778 59.05521778 0 0 0-59.29794332 58.81249224 59.05521778 59.05521778 0 0 0 59.29794332 58.81249109M955.02336 337.44516779c-14.8062811 0-26.45712555 11.35957333-26.45712555 25.80176554s11.65084445 25.80176555 26.45712555 25.80176555c14.8062811 0 26.45712555-11.35957333 26.45712555-25.80176555s-12.69456555-25.80176555-26.45712555-25.80176554m0 86.67742776c-33.88453888 0-61.40965888-26.82121443-61.40965888-59.83194112 0-21.67542557 11.65084445-41.26340779 29.66110777-51.60353109-30.70483001-190.90394112-197.99153778-340.5202011-401.25022777-340.52020224-168.33043001 0-311.27172779 92.86693888-373.72510891 237.33741113h-38.10796999c63.52137443-165.10217443 223.38067001-271.36758557 411.8330789-271.36758556 220.20096 0 401.22595555 158.88839111 435.11049443 363.19080334 32.81654557 1.0437211 59.29794333 28.88438557 59.29794333 60.89993444 0 34.05444779-27.52512 61.89511111-61.40965888 61.8951111M89.00152889 337.44516779c-14.8062811 0-26.45712555 11.35957333-26.45712555 25.80176554s11.65084445 25.80176555 26.45712555 25.80176555c14.83055445 0 26.45712555-11.35957333 26.45712554-25.80176555s-11.62657223-25.80176555-26.45712554-25.80176554m61.40965888 25.80176554a59.71057778 59.71057778 0 0 1-31.74855111 52.62298112c22.23369443 198.11290112 193.74383445 346.70971221 403.36194446 346.70971222A404.13866667 404.13866667 0 0 0 902.06056334 498.4210011h37.06424889C879.85114112 684.15488 715.76841443 796.63407445 520.95658667 796.63407445 294.39620779 796.63407445 109.12350777 633.59507001 83.71010333 419.99625443 51.96155221 417.93308445 26.54814777 393.17504 26.54814777 361.18376334000004c0-33.01072555 27.52512-59.85621333 61.40966002-59.85621333 34.95253333 1.0437211 62.45338112 28.88438557 62.45337998 61.91938332M448.96407666 442.7154011H412.96782222v-35.09816889h-40.21968555V442.73967445H336.7518811v39.20023666h35.99625557v35.07389668h40.21968555v-35.07389668h35.99625444v-39.20023666z m291.14974891 96.99328a272.72684999 272.72684999 0 0 1-227.62837334 121.75132445c-151.38816 0-273.13948445-121.75132445-273.13948444-270.34813554s121.75132445-270.34813667 273.13948444-270.34813668c90.00277333 0 170.46641778 43.32657778 220.22523222 110.41602333l-152.45615446 150.63571001 159.85929558 157.89321443z"  horiz-adv-x="1024" />

    
    <glyph glyph-name="emr" unicode="&#59191;" d="M424.533333 777.194667l27.349334-192.704s68.394667 9.088 106.410666 0l27.349334 192.704s-69.930667 27.306667-161.109334 0z m27.349334-593.685334L424.533333-9.173332999999957c91.2-27.306667 161.109333 0 161.109334 0l-27.349334 192.704c-38.016-9.088-106.410667 0-106.410666 0z m261.610666 249.066667s9.130667-68.288 0-106.24l193.045334-27.306667s27.349333 69.781333 0 160.853334l-193.045334-27.306667z m-401.642666 0l-193.024 27.306667c-27.349333-91.072 0-160.853333 0-160.853334l193.024 27.306667c-9.109333 37.952 0 106.24 0 106.24z m369.984 55.104l112.469333 68.288s-25.856 80.426667-101.845333 109.248l-75.989334-109.248s51.669333-33.386667 65.365334-68.266667z m-455.978667 68.288l112.469333-68.266667c13.696 34.88 65.365333 68.266667 65.365334 68.266667l-75.989334 109.248c-76.010667-28.8-101.845333-109.248-101.845333-109.248z m385.664-355.072l75.989333-109.226667c76.010667 28.8 101.845333 109.226667 101.845334 109.226667l-112.469334 68.288c-13.696-34.901333-65.365333-68.266667-65.365333-68.266667zM334.933333 269.18399999999997l-112.469333-68.266667s25.834667-80.448 101.824-109.269333l76.010667 109.248s-51.690667 33.386667-65.365334 68.288z"  horiz-adv-x="1024" />

    
    <glyph glyph-name="cos" unicode="&#59192;" d="M808 106.00533299999995l-21.952 32.896 65.813333 38.4V572.096l-197.418666 115.157333 19.2 32.917334 216.597333-126.144v-438.698667l-82.24-49.344zM166.378667 333.568H128V591.317333L517.333333 810.666667l87.765334-49.344-19.2-35.648-68.544 41.130666L166.378667 569.386667v-235.818667zM509.12-64L128 152.61866699999996v106.922666h38.4v-84.992l342.72-194.688 222.08 126.144 19.2-32.917333L509.141333-64z m-24.682667 619.669333l-84.992 49.365334v30.144l112.426667 65.813333 109.653333-65.813333v-30.144l-82.24-49.365334-2.752-30.165333-24.661333 16.448-27.434667-16.426667v30.144z m172.757334-197.418666V456.96l-85.013334 49.365333v30.144l109.674667 63.061334 112.426667-63.061334v-128.853333l-112.426667-63.082667-24.661333 13.717334zM399.445333 111.48800000000006v126.122667l24.682667 16.448 84.992-49.344 87.744 49.344 24.682667-13.717334v-128.853333l-112.426667-65.813333-109.653333 65.813333z m257.749334 49.344v98.709333l-27.434667 16.448 27.434667 13.717334v30.165333l24.661333-16.448 85.013333 49.344 27.413334-13.717333v-128.853334l-112.426667-63.061333-24.661333 13.696z m-257.749334 148.053333V437.76l112.426667 63.061333 109.653333-63.061333v-128.853333l-112.405333-63.061334-109.653333 63.061334z m-175.488-98.688l2.752 128.853334 24.682667 13.717333 84.992-49.344 27.413333 16.426667v-30.144l27.434667-16.448-27.434667-13.717334v-98.709333l-27.413333-13.696-112.426667 63.061333z m0 197.418667l2.752 128.853333 112.426667 63.061334 109.653333-63.061334v-30.144l-84.992-49.365333v-95.957333l-27.413333-16.469334-112.426667 63.082667z"  horiz-adv-x="1024" />

    
    <glyph glyph-name="ess" unicode="&#59193;" d="M979.797333 503.808C932.437333 622.229333 861.397333 640 825.813333 640c-23.68 0-53.269333-5.909333-88.810666-35.541333l-17.770667-17.770667c-35.541333 29.589333-65.130667 35.541333-82.901333 35.541333-35.541333 0-100.693333-17.770667-153.962667-136.192l-59.221333-148.053333-71.04 165.824C304.746667 622.229333 233.685333 640 198.144 640c-35.541333 0-100.693333-17.770667-153.962667-136.192-5.909333-17.770667 5.909333-41.450667 23.68-47.36 17.770667-5.909333 41.450667 0 53.290667 23.68 23.68 53.290667 53.269333 88.832 76.992 88.832 23.701333 0 53.269333-35.541333 76.992-88.832l82.901333-201.322667 17.770667-35.541333s5.909333 5.909333 5.909333 11.861333c-5.909333-11.861333-11.84-23.68-23.68-29.589333-11.861333-11.861333-23.68-23.68-41.450666-23.68-23.68 0-53.290667 35.52-77.013334 88.810667-5.888 17.770667-29.589333 29.589333-53.269333 23.68-17.770667-5.909333-29.589333-29.589333-23.68-53.269334 47.36-118.421333 118.421333-136.192 153.962667-136.192 23.68 0 53.269333 5.909333 88.810666 35.541334l17.770667 17.770666c35.541333-29.610667 65.130667-35.541333 82.901333-35.541333 35.541333 0 100.693333 17.770667 153.962667 136.170667l65.130667 148.053333 71.04-171.733333c5.930667-17.770667 29.610667-29.589333 53.290666-23.68 17.770667 5.909333 29.610667 29.589333 23.68 53.290666l-82.901333 195.413334-17.770667 35.52s-5.909333-5.909333-5.909333-11.84c5.909333 11.84 11.861333 23.68 23.68 29.589333 11.861333 11.861333 23.68 23.68 41.450667 23.68 23.68 0 53.290667-35.541333 77.013333-88.810667 5.909333-11.861333 29.589333-23.68 47.36-11.861333 17.770667 5.909333 29.589333 29.589333 23.68 47.36z m-307.904 0l-82.922666-195.413333c-23.68-53.269333-53.269333-88.810667-76.992-88.810667-11.84 0-23.68 5.909333-41.450667 23.68-11.861333-17.770667-17.770667-29.589333-29.589333-41.450667 5.909333 5.909333 11.84 11.861333 17.770666 23.68l17.770667 35.541334 82.901333 195.413333c23.68 53.269333 53.269333 88.810667 76.992 88.810667 11.861333 0 23.68-5.909333 41.450667-23.68 11.861333 17.770667 17.770667 29.610667 29.589333 41.450666-5.909333-5.909333-11.84-11.84-17.770666-23.68l-17.749334-35.541333z"  horiz-adv-x="1024" />

    
    <glyph glyph-name="ecs" unicode="&#59194;" d="M864.661333-7.530666999999994H180.608C139.754667-7.530666999999994 106.666667 22.03733299999999 106.666667 62.976v82.026667c0 40.853333 33.088 70.442667 73.941333 70.442666h684.074667c40.853333 0 73.984-29.589333 73.984-70.442666v-82.026667c-0.021333-40.938667-33.130667-70.506667-74.005334-70.506667z m-82.624 164.992a53.546667 53.546667 0 0 1-53.546666-53.482666 53.589333 53.589333 0 0 1 53.546666-53.546667 53.525333 53.525333 0 0 1 0 107.008z m82.624 111.317334H180.608C139.754667 268.79999999999995 106.666667 298.346667 106.666667 339.22133299999996v82.069334c0 40.853333 33.088 70.442667 73.941333 70.442666h684.074667c40.853333 0 73.984-29.546667 73.984-70.442666v-82.069334c-0.021333-40.874667-33.130667-70.442667-74.005334-70.442666z m-82.624 164.992a53.610667 53.610667 0 0 1-53.546666-53.610667 53.653333 53.653333 0 0 1 53.546666-53.546667 53.589333 53.589333 0 1 1 0 107.178667z m82.624 111.104H180.608C139.754667 544.874667 106.666667 574.570667 106.666667 615.4026670000001V697.386667C106.666667 738.304 139.754667 768 180.608 768h684.074667C905.536 768 938.666667 738.304 938.666667 697.365333v-81.984c-0.021333-40.810667-33.130667-70.506667-74.005334-70.506666z m-82.624 165.056a53.589333 53.589333 0 0 1-53.546666-53.546667 53.546667 53.546667 0 0 1 107.093333 0 53.546667 53.546667 0 0 1-53.546667 53.546667z"  horiz-adv-x="1024" />

    
    <glyph glyph-name="eip" unicode="&#59199;" d="M854.869333 499.136l14.037334 14.037333 29.632-29.632 17.92 20.266667-91.989334 95.082667-28.821333 0.768-48.32 47.573333-40.533333-41.301333-128.64 118.506666s-95.893333 61.589333-194.88-20.266666c-98.986667-81.877333-42.048-183.189333-42.048-183.189334l81.066666-92.757333 49.898667 45.184-60.8 70.933333s-42.090667 58.453333 12.458667 109.12c54.570667 50.645333 113.024 23.402667 113.024 23.402667l119.253333-118.506667-41.28-39.765333 130.197333-132.522667 3.136 0.768 18.688 21.824 60.032-61.589333L917.333333 439.04l-62.464 60.074667z m-364.224-44.373333l46.293334-46.272-47.402667-47.381334-46.293333 46.272L490.666667 454.784z m59.669334-152.874667l-46.293334 46.293333 47.402667 47.36 46.293333-46.272-47.402666-47.381333z m70.698666 24.192l-47.509333-45.184 39.04-47.914667s42.112-58.453333-12.437333-109.12c-54.570667-50.666667-113.024-23.402667-113.024-23.402666l-119.253334 118.485333 41.28 39.765333-130.197333 132.48-3.093333-0.768-18.688-21.824-60.032 61.546667L106.666667 338.19733299999996l62.357333-60.032-14.016-14.037333-29.653333 29.653333-17.92-20.266666 91.989333-95.104 28.821333-0.746667 48.341334-47.573333 40.533333 41.28 128.618667-118.485334s95.893333-61.610667 194.88 20.266667c98.986667 81.856 42.112 183.168 42.112 183.168l-61.717334 69.76z"  horiz-adv-x="1024" />

    
    <glyph glyph-name="hpc" unicode="&#59200;" d="M251.669333 315.30666699999995a7.936 7.936 0 0 1-13.333333 0l-151.68-234.090667a7.957333 7.957333 0 0 1 6.656-12.330667h303.552a7.957333 7.957333 0 0 1 6.656 12.330667L251.669333 315.30666699999995z m685.653334-234.090667l-151.68 234.090667a7.936 7.936 0 0 1-13.312 0l-151.68-234.090667a7.957333 7.957333 0 0 1 6.656-12.330667h303.530666a7.936 7.936 0 0 1 6.506667 12.330667z m-174.826667 307.029333L518.570667 764.373333a7.936 7.936 0 0 1-13.312 0L261.482667 388.266667a12.586667 12.586667 0 0 1 0-13.994667l243.776-376.128a7.936 7.936 0 0 1 13.312 0l243.776 376.128a12.906667 12.906667 0 0 1 0.149333 13.994667z m-145.344-121.045333c0-2.986667-2.346667-5.333333-5.333333-5.333333h-199.808c-2.986667 0-5.333333 2.346667-5.333334 5.333333v34.133333c0 2.986667 2.346667 5.333333 5.333334 5.333334h199.808c2.986667 0 5.333333-2.346667 5.333333-5.333334v-34.133333z m0 97.066667c0-2.986667-2.346667-5.333333-5.333333-5.333334h-199.808c-2.986667 0-5.333333 2.346667-5.333334 5.333334v33.962666c0 2.986667 2.346667 5.333333 5.333334 5.333334h199.808c2.986667 0 5.333333-2.346667 5.333333-5.333334v-33.962666z m0 96.896c0-2.986667-2.346667-5.333333-5.333333-5.333334h-199.808c-2.986667 0-5.333333 2.346667-5.333334 5.333334V495.146667c0 2.986667 2.346667 5.333333 5.333334 5.333333h199.808c2.986667 0 5.333333-2.346667 5.333333-5.333333v-33.984z m-26.986667-187.648a10.816 10.816 0 1 1 0 21.653333 10.816 10.816 0 0 1 0-21.653333z m0 193.813333a10.816 10.816 0 1 1 0 21.653333 10.816 10.816 0 0 1 0-21.653333z m0-96.896a10.816 10.816 0 1 1 0 21.632 10.816 10.816 0 0 1 0-21.632z"  horiz-adv-x="1024" />

    
    <glyph glyph-name="fpga" unicode="&#59202;" d="M595.306667 424.789333c0 0.213333-0.128 0.64-0.341334 1.28-1.066667 2.56-1.6 4.053333-1.6 4.48h-0.32l-1.92-5.76c-0.234667-0.426667-3.562667-8.96-10.026666-25.557333h24.192a2291.84 2291.84 0 0 1-9.984 25.557333M458.346667 431.168h-15.466667v-24.917333h15.466667c9.877333 0.213333 14.933333 4.48 15.146666 12.8-0.426667 7.850667-5.482667 11.904-15.146666 12.117333M756.693333 573.418667H704v32.938666h-35.349333v52.522667h88.085333v-85.461333zM704 409.877333h52.736v143.616h-52.736v-143.616z m0-161.450666h52.736v141.525333h-52.736v-141.525333z m52.736-105.024h-88.106667v45.866666H704V228.48000000000002h52.736v-85.098667z m-108.096 78.784h22.144v21.973333h-22.144v-21.973333z m0 32.938666h22.144v21.952h-22.144v-21.973333z m0 65.856h22.144v21.952h-22.144v-21.973333z m0 98.773334h22.144v21.973333h-22.144v-21.973333z m0 98.773333h22.144v21.973333h-22.144v-21.973333z m-138.666667 87.829333H648.533333v52.522667h-138.56v-52.522667z m0-462.933333H648.533333v45.845333h-138.56v-45.866666z m-27.434666 78.762667h22.144v21.973333h-22.144v-21.973333z m-135.957334-78.784h143.317334v45.866666h-143.317334v-45.866666z m-30.122666 78.784h22.144v21.973333h-22.144v-21.973333z m10.026666-78.784h-89.792v85.098666h46.549334v-39.253333h43.242666v-45.845333z m-89.792 105.024h46.549334v141.525333h-46.549334v-141.525333z m0 161.450666h46.549334v143.616h-46.549334v-143.616z m0 249.002667h89.813334v-52.522667h-43.264v-32.938666h-46.549334v85.461333z m79.765334-107.413333h22.144v21.952h-22.144v-21.952z m0-296.341334h22.144v21.952h-22.144v-21.973333z m0 131.712h22.144v21.952h-22.144v-21.973333z m0-32.938666h22.144v21.973333h-22.144v-21.973333z m0-65.856h22.144v21.973333h-22.144v-21.973333z m0 32.938666h22.144v21.952h-22.144v-21.973333z m0 98.773334h22.144v21.973333h-22.144v-21.973333z m0 32.938666h22.144v21.952h-22.144v-21.973333z m0 65.856h22.144v21.952h-22.144v-21.973333z m0-32.938666h22.144v21.952h-22.144v-21.952z m33.216 65.856h22.144v21.952H349.653333v-21.952z m0-329.28h22.144v21.973333H349.653333v-21.973333z m-3.093334 384.170666h143.317334v52.522667h-143.317334v-52.522667z m102.741334-54.890666h22.144v21.952h-22.144v-21.952z m-33.216-329.28h22.144v21.973333h-22.144v-21.973333z m0 329.28h22.144v21.952h-22.144v-21.952z m-33.216 0h22.144v21.952h-22.144v-21.952z m0-329.28h22.144v21.973333h-22.144v-21.973333z m2.325333 180.245333v-28.757333h-10.304v65.493333h46.08v-8.32h-35.776v-20.437333h31.253333v-7.978667h-31.253333z m64.106667-180.245333H471.466667v21.973333h-22.144v-21.973333z m10.325333 176.085333h-16.746667v-24.597333h-10.325333v65.493333h28.053333c14.805333-0.64 22.656-7.253333 23.509334-19.818667-0.213333-13.845333-8.384-20.864-24.490667-21.077333z m22.890667 153.194667h22.144v21.952h-22.144v-21.952z m33.216-329.28h22.144v21.973333h-22.144v-21.973333z m33.216 329.28h22.144v21.952h-22.144v-21.952z m0-329.28h22.144v21.973333h-22.144v-21.973333z m33.237333 0h22.144v21.973333H582.186667v-21.973333z m33.216 0h22.144v21.973333h-22.144v-21.973333z m0 329.28h22.122667v21.952h-22.144v-21.952z m-33.237333 0h22.144v21.952H582.186667v-21.952z m5.077333-112.298667h11.925333l26.410667-65.493333h-10.944l-6.762667 17.578666h-29.333333l-6.762667-17.578666h-10.965333l26.432 65.493333z m-71.509333 112.298667h22.144v21.952h-22.144v-21.952z m8.661333-111.36c15.253333-0.213333 25.258667-6.058667 29.973333-17.557334l-9.664-3.52c-3.221333 8.32-9.984 12.458667-20.309333 12.458667-12.885333-1.28-19.861333-9.685333-20.928-25.237333 0.853333-15.957333 8.256-24.490667 22.229333-25.536 9.237333 0.213333 15.786667 2.858667 19.648 7.978666v12.778667h-21.589333v8.32h30.933333v-24.298667c-4.501333-8.32-14.165333-12.565333-29.013333-12.778666-20.821333 1.066667-31.786667 12.245333-32.853333 33.536 1.066667 21.525333 11.605333 32.789333 31.573333 33.877333z m124.224 45.504h22.144v21.952h-22.144v-21.952z m0-32.917334h22.144v21.952h-22.144v-21.973333z m0-65.856h22.144v21.952h-22.144v-21.973333z m0-32.938666h22.144v21.973333h-22.144v-21.973333z m0-65.856h22.144v21.973333h-22.144v-21.973333z m0 263.424h22.144V573.44h-22.144v-21.952z m238.08-21.44v64.426666h-64.981333v64.426667c0 35.605333-29.12 64.426667-65.002667 64.426667h-65.024V787.776h-65.002667v-64.426667h-97.493333v64.426667h-65.002667v-64.426667h-97.493333v64.426667H301.653333v-64.426667h-65.002666c-35.904 0-65.002667-28.842667-65.002667-64.426666v-64.448H106.666667v-64.426667h65.002666v-96.661333H106.666667v-64.426667h65.002666v-96.661333H106.666667v-64.426667h65.002666v-64.426667c0-35.626667 29.098667-64.448 65.002667-64.448h65.002667v-64.426666h65.002666v64.426666h97.493334v-64.426666h65.024v64.426666h97.493333v-64.426666h65.002667v64.426666h65.024c35.882667 0 65.002667 28.842667 65.002666 64.426667v64.426667h65.002667v64.448h-65.002667v96.64h65.002667v64.448h-65.002667v96.64h65.002667z"  horiz-adv-x="1024" />

    
    <glyph glyph-name="gpu" unicode="&#59205;" d="M629.333333 477.866667c-36.266667 0-66.133333-29.866667-66.133333-68.266667 0-38.4 29.866667-68.266667 66.133333-68.266667 36.266667 0 66.133333 29.866667 66.133334 68.266667 0 38.4-29.866667 68.266667-66.133334 68.266667zM812.8 106.66666699999996z m-217.6 130.133333h-347.733333v134.4h249.6v51.2h-249.6v130.133333H593.066667c85.333333 0 153.6-70.4 153.6-157.866666s-66.133333-157.866667-151.466667-157.866667z m279.466667 172.8h59.733333v110.933333c0 21.333333-10.666667 40.533333-25.6 51.2l-151.466667 155.733334c-10.666667 12.8-25.6 19.2-42.666666 19.2H123.733333c-34.133333 0-59.733333-27.733333-59.733333-61.866667V106.66666699999996c0-34.133333 27.733333-61.866667 59.733333-61.866667h21.333334v36.266667h46.933333v-36.266667h19.2v36.266667h46.933333v-36.266667h19.2v36.266667h46.933334v-36.266667h19.2v36.266667h46.933333v-36.266667h19.2v36.266667h46.933333v-36.266667h19.2v36.266667h46.933334v-36.266667h19.2v36.266667h46.933333v-36.266667h19.2v36.266667h46.933333v-36.266667h19.2v36.266667h46.933334v-36.266667h19.2v36.266667h46.933333v-36.266667h19.2v36.266667h46.933333v-38.4h23.466667c34.133333 0 59.733333 27.733333 59.733333 61.866666v247.466667h-59.733333c-17.066667 0-36.266667 8.533333-36.266667 27.733333-2.133333 17.066667 17.066667 29.866667 34.133334 29.866667z"  horiz-adv-x="1024" />

    
    <glyph glyph-name="fc" unicode="&#59207;" d="M249.557333 604.6933329999999l51.968-51.946666-205.973333-205.952-51.946667 51.946666zM43.605333 398.293333l51.946667 51.946667 205.952-205.952-51.946667-51.968zM717.546667 192.32000000000005l-51.968 51.946667 205.952 205.952 51.968-51.946667zM923.52 398.72l-51.968-51.946667L665.6 552.746667l51.946667 51.968zM619.733333 760.1279999999999l25.984-25.984L283.946667 372.394667l-25.962667 25.962666zM437.482667 269.674667l-25.984-25.962667-154.453334 154.453333 25.984 25.962667zM489.642667 372.69333300000005l25.984-25.984-102.997334-102.997333-25.984 25.984zM657.770667 707.797333c-35.456 0-64.277333 28.586667-64.277334 63.701334 0 35.136 28.821333 63.722667 64.277334 63.722666s64.298667-28.586667 64.298666-63.722666-28.842667-63.701333-64.298666-63.701334z m0 91.008c-15.189333 0-27.541333-12.245333-27.541334-27.306666 0-15.04 12.373333-27.306667 27.541334-27.306667 15.210667 0 27.562667 12.266667 27.562666 27.306667 0 15.061333-12.373333 27.306667-27.562666 27.306666zM346.88 36.30933300000004l-25.984 25.984L682.666667 424.064l25.962666-25.984zM529.152 526.784l25.962667 25.962667 154.453333-154.453334-25.984-25.962666zM477.013333 423.765333l-25.984 25.984 102.976 102.976 25.984-25.962666zM308.842667 88.66133300000001c35.456 0 64.298667-28.586667 64.298666-63.722666s-28.842667-63.722667-64.298666-63.722667c-35.456 0-64.298667 28.586667-64.298667 63.722667s28.842667 63.722667 64.298667 63.722666z m0-91.029333c15.189333 0 27.541333 12.245333 27.541333 27.306667 0 15.061333-12.373333 27.306667-27.541333 27.306666-15.210667 0-27.562667-12.245333-27.562667-27.306666 0-15.061333 12.373333-27.306667 27.562667-27.306667z"  horiz-adv-x="1024" />

    
    <glyph glyph-name="dts" unicode="&#59209;" d="M781.354667 585.7919999999999C760.533333 701.525333 659.306667 789.333333 537.6 789.333333a247.744 247.744 0 0 1-224.213333-142.229333 199.936 199.936 0 1 1-0.917334-399.658667l0.021334-0.085333h22.848l29.12 104.810667-70.485334 64.938666 296.853334 205.397334-190.656-642.410667 305.685333 199.018667-75.861333 68.736 116.330666-0.490667h6.72V247.46666700000003a171.008 171.008 0 0 1 28.330667 338.304z"  horiz-adv-x="1024" />

    
    <glyph glyph-name="dms" unicode="&#59212;" d="M911.850667 196.99199999999996L519.936-21.33333300000004 128 196.99199999999996l82.346667 45.866667 311.637333-174.378667 309.568 173.12 80.298667-44.586667z m-196.266667 248.021333l196.266667-109.333333-391.914667-218.176L128 335.67999999999995l190.08 105.834667v-37.12l-122.645333-68.693334 324.48-181.546666 324.48 181.546666-128.832 72.170667v37.12z m-195.648 235.797334c-88.789333 0-160.746667 24.277333-160.746667 54.250666C359.189333 765.034667 431.146667 789.333333 519.936 789.333333c88.746667 0 160.725333-24.298667 160.725333-54.272s-71.957333-54.250667-160.725333-54.250666z m160.576 36.48v-121.536c0-29.994667-72.042667-54.272-160.746667-54.272-88.853333 0-160.725333 24.277333-160.725333 54.272V717.290667v-0.64c0-29.973333 72.021333-54.250667 160.725333-54.250667 88.853333 0 160.746667 24.277333 160.746667 54.250667v0.64z m0-143.125334v-121.536c0-29.994667-72.042667-54.272-160.746667-54.272-88.853333 0-160.725333 24.277333-160.725333 54.272v121.536-0.64c0-29.973333 72.021333-54.250667 160.725333-54.250666 88.853333 0 160.746667 24.277333 160.746667 54.272v0.64z m0-141.866666v-121.536c0-29.973333-72.042667-54.250667-160.746667-54.250667-88.853333 0-160.725333 24.277333-160.725333 54.250667v121.557333-0.64c0-29.994667 72.021333-54.272 160.725333-54.272 88.853333 0 160.746667 24.277333 160.746667 54.272v0.64z"  horiz-adv-x="1024" />

    
    <glyph glyph-name="ads" unicode="&#59213;" d="M867.669333 384.512l37.952 78.634667c18.986667 43.370667 2.709333 94.869333-40.682666 116.565333l-108.437334 51.498667-51.498666 108.437333c-18.986667 43.392-73.194667 62.357333-116.565334 40.682667l-78.634666-37.973334-78.613334 37.973334c-43.370667 18.986667-94.890667 2.709333-116.565333-40.682667l-48.789333-111.146667-108.458667-48.789333c-43.370667-21.696-62.336-73.194667-43.370667-116.565333l37.973334-78.634667-37.973334-78.613333c-18.986667-43.370667 0-94.890667 43.370667-116.565334l108.458667-51.52 51.498666-108.437333c18.986667-43.370667 73.194667-62.336 116.565334-40.661333l78.613333 37.973333 78.634667-37.973333c43.370667-18.986667 94.869333-2.709333 116.565333 40.661333l51.498667 108.437333 108.437333 51.52c43.392 18.986667 62.357333 73.173333 40.682667 116.565334l-40.661334 78.613333zM509.802667 37.54666699999996L162.816 384.512 509.802667 731.52l347.008-347.008L509.802667 37.54666699999996z"  horiz-adv-x="1024" />

    
    <glyph glyph-name="oce" unicode="&#59214;" d="M403.306667 174.44266700000003h2.197333l92.522667-160.512h-174.464c-16.149333 0-35.498667 11.264-43.562667 25.066666L91.392 365.88800000000003c-8.085333 13.802667-8.085333 36.522667 0 50.304l188.586667 326.570667c8.106667 13.802667 27.434667 25.066667 43.584 25.066666h171.946666l-92.202666-159.317333c-16.149333 0-29.098667-13.12-29.098667-28.949333 0-5.205333 1.514667-10.24 4.053333-14.634667l-83.797333-145.024a28.928 28.928 0 1 1 0-57.877333h2.688l82.261333-142.336a28.928 28.928 0 0 1 23.893334-45.248z m213.013333 56.533333s-0.170667 0 0 0L534.186667 372.266667c2.688 3.2 4.693333 7.061333 5.717333 11.264h162.517333a9.130667 9.130667 0 0 1 1.514667-4.032l-14.634667-25.386667L618.666667 230.784c-0.682667 0-1.514667-0.170667-2.197334-0.170667l-0.149333 0.32z m316.288 185.066667c8.085333-13.802667 8.085333-36.522667 0-50.304l-188.586667-326.570667c-8.106667-13.802667-27.434667-25.066667-43.584-25.066667h-169.258666l-97.237334 168.917334h165.205334c5.226667-6.058667 13.12-9.6 21.717333-9.6a28.928 28.928 0 0 1 26.410667 40.725333l85.12 147.882667a28.906667 28.906667 0 0 1 26.922666 28.928c0 15.146667-11.264 27.434667-26.069333 28.949333l-85.482667 148.394667a28.928 28.928 0 0 1-26.922666 39.530666c-13.12 0-24.384-8.746667-27.925334-20.864h-161.664a24.256 24.256 0 0 1-3.029333 7.061334L528.832 768h171.605333c16.149333 0 35.498667-11.264 43.562667-25.066667l188.608-326.890666z m-530.133333-184.064l-83.285334 143.850666 1.514667 3.029334c0.341333 0.853333 0.682667 1.834667 1.002667 2.688 0.170667 0 0.170667 0.170667 0.170666 0.341333a14.016 14.016 0 0 1 0.682667 2.517333v0.341334c0.341333 1.002667 0.341333 1.834667 0.512 2.858666v0.341334a29.866667 29.866667 0 0 1-1.344 12.458666 43.584 43.584 0 0 1-2.368 4.864l0.170667 0.341334 83.776 145.024c3.712 0 7.082667 0.661333 10.261333 2.005333l80.256-138.965333c0-0.170667-0.170667-0.170667-0.170667-0.170667l0.170667-0.170667c-6.549333-5.376-10.752-13.44-10.752-22.528 0-6.912 2.517333-13.461333 6.72-18.517333l-0.170667-0.341333-81.088-140.48c-1.685333 0.170667-3.541333 0.512-5.546666 0.512h-0.512z m24.554666-12.8a30.784 30.784 0 0 1-5.205333 6.058666l-0.341333 0.341334 79.914666 138.304h0.170667c1.514667-0.682667 3.2-1.173333 4.885333-1.514667 1.685333-0.341333 3.52-0.512 5.376-0.512 1.002667 0 2.026667 0 3.029334 0.170667 2.688 0.341333 5.226667 1.002667 7.573333 1.856 0.853333 0.341333 1.493333 0.661333 2.346667 1.002666l80.768-138.133333c-5.546667-3.52-9.92-8.576-12.117334-14.805333h-163.029333a23.616 23.616 0 0 1-3.370667 7.253333zM689.834667 437.76l17.322666-30.293333a27.392 27.392 0 0 1-4.544-9.749334l-162.517333 0.341334h-0.170667a29.269333 29.269333 0 0 1-10.090666 15.637333c0 0.170667-0.170667 0.170667-0.170667 0.170667-0.341333 0.341333-0.661333 0.512-1.002667 0.853333a28.266667 28.266667 0 0 1-21.546666 4.544l-81.770667 141.482667c0.170667 0.170667 0.170667 0.341333 0.341333 0.512 0.512 0.661333 1.173333 1.344 1.706667 2.176 1.664 2.688 3.008 5.546667 3.690667 8.576h0.170666c0 0.170667 0.149333 0.341333 0.149334 0.512h161.194666a29.376 29.376 0 0 1 28.416-22.72c1.365333 0 2.858667 0 4.053334 0.170666l64.768-112.213333z"  horiz-adv-x="1024" />

    
    <glyph glyph-name="hybriddb" unicode="&#59215;" d="M981.333333 320c0 258.133333-211.2 469.333333-469.333333 469.333333S42.666667 578.133333 42.666667 320c0-38.144 5.866667-76.266667 14.677333-111.466667 0-11.733333 2.922667-20.522667 8.789333-29.333333 11.733333-17.6 29.333333-29.333333 52.8-29.333333 32.277333 0 55.722667 23.466667 61.610667 52.8 49.856-137.856 178.922667-234.666667 334.4-234.666667 140.8 0 264 82.133333 319.722667 202.389333 5.866667-29.333333 29.333333-49.856 61.610666-49.856 23.466667 0 43.989333 11.733333 55.722667 32.277334C969.6 202.66666699999996 981.333333 258.410667 981.333333 320z m-240.533333-32.256C723.2 176.277333 626.389333 94.144 512 94.144c-120.256 0-220.010667 90.922667-228.8 208.256 35.2 11.733333 70.4 20.522667 108.544 26.410667 2.922667 64.512 55.722667 114.389333 120.256 114.389333 67.477333 0 120.256-52.8 120.256-120.256 38.144-11.733333 73.344-23.466667 108.544-35.2 0 8.789333 2.922667 20.522667 2.922667 32.256 0 129.066667-102.656 231.744-231.722667 231.744A230.357333 230.357333 0 0 1 280.256 320v-14.677333c-41.066667-14.656-79.189333-29.333333-117.333333-49.856v-5.866667l-2.922667 2.922667c-2.944 23.466667-5.866667 44.010667-5.866667 67.477333a354.282667 354.282667 0 0 0 354.944 354.922667A354.282667 354.282667 0 0 0 864 320c0-32.256-2.944-64.533333-11.733333-93.866667-35.2 23.466667-70.4 44.010667-111.466667 61.589334z m-196.544 43.989333h-96.789333c-5.866667 0-11.733333 0-17.6-2.922666h-5.866667c-5.866667 0-11.733333 0-17.6-2.944h-11.733333V320c0-67.477333 52.8-120.277333 120.256-120.277333 67.477333 0 120.277333 52.8 120.277333 120.277333-32.256 5.866667-58.666667 8.810667-90.922667 11.733333z"  horiz-adv-x="1024" />

    
    <glyph glyph-name="memcache" unicode="&#59216;" d="M725.290667 552.5973329999999v99.306667L512 768l-213.290667-116.096-1.472-99.306667 214.826667-99.477333 213.226667 99.306667v-99.477334L512 353.91999999999996l-0.490667-0.170667-212.8 99.221334v99.477333L85.333333 453.12v-252.266667l213.866667-99.221333L512-3.6266669999999976v0.32l213.205333 104.853334L938.666667 200.85333300000002V453.12z"  horiz-adv-x="1024" />

    
    <glyph glyph-name="ri" unicode="&#59217;" d="M809.685333 441.770667a59.904 59.904 0 0 1-59.370666 5.013333l-3.626667 3.904-22.592-21.76 2.24-2.496a59.498667 59.498667 0 0 1 15.317333-82.517333 59.52 59.52 0 0 1 83.093334 14.762666 59.84 59.84 0 0 1-15.061334 83.093334z m-451.669333 69.696l14.784 15.893333-23.146667 21.184-15.893333-17.28 5.290667-5.013333a161.450667 161.450667 0 0 1-119.317334 25.088c-42.944-7.808-80.298667-31.509333-105.109333-67.477334a163.413333 163.413333 0 0 1-26.773333-122.112c7.808-42.944 31.509333-80.298667 67.477333-105.109333a161.877333 161.877333 0 0 1 92.842667-29.269333c51.584 0 102.613333 24.533333 134.101333 69.973333a163.413333 163.413333 0 0 1 26.773333 122.112 163.157333 163.157333 0 0 1-51.029333 92.010667z m-1.664-195.712a131.904 131.904 0 0 0-183.466667-32.896 129.92 129.92 0 0 0-54.357333 84.757333 130.986667 130.986667 0 0 0 21.461333 98.410667 129.92 129.92 0 0 0 84.757334 54.378666 133.205333 133.205333 0 0 0 23.424 2.218667c26.752 0 52.693333-8.085333 74.986666-23.68a129.92 129.92 0 0 0 54.378667-84.778667 128.426667 128.426667 0 0 0-21.184-98.410666z m44.522667 288.469333l23.168-21.354667-34.197334-37.12-23.168 21.354667 34.197334 37.12z m328.533333-135.957333l-22.613333-21.930667-34.154667 35.221333 22.613333 21.952 34.154667-35.242666z m-85.333333 87.808l-22.570667-21.738667L655.786667 499.2l22.592 21.76-34.304 35.114667z m-49.92 51.584c5.866667 6.4 11.178667 13.653333 15.36 21.482666a108.586667 108.586667 0 0 1-44.330667 147.2 108.586667 108.586667 0 0 1-147.221333-44.330666 108.629333 108.629333 0 0 1 2.24-106.773334l-2.24-2.517333 10.602666-9.770667c8.917333-11.136 20.053333-20.906667 33.728-28.16 36.245333-19.498667 78.336-16.170667 110.677334 4.757334l-2.773334-2.517334 34.005334-35.136 22.592 22.037334-32.64 33.728zM248.469333 333.034667a59.669333 59.669333 0 1 1 0 119.338666 59.669333 59.669333 0 0 1 0-119.338666z m620.352 195.733333c-73.877333 51.285333-175.658667 33.173333-226.944-40.725333-51.306667-73.877333-33.194667-175.637333 40.704-226.944a161.877333 161.877333 0 0 1 92.842667-29.269334c51.584 0 102.613333 24.533333 134.101333 69.973334 51.306667 73.6 33.173333 175.36-40.704 226.965333z m15.061334-209.386667a131.904 131.904 0 0 0-183.466667-32.917333 131.904 131.904 0 0 0-32.896 183.466667 131.477333 131.477333 0 0 0 108.16 56.32c25.941333 0 52.16-7.530667 75.008-23.424a132.202667 132.202667 0 0 0 33.194667-183.466667zM513.877333-3.7759999999999536a108.736 108.736 0 1 1 0 217.472 108.736 108.736 0 0 1 0-217.472z m131.925334 283.946667l23.168-21.376-16.064-17.408-23.168 21.333333 16.064 17.429333z m-33.28-35.946667l23.168-21.333333-34.197334-37.12-23.168 21.354666 34.197334 37.12z m-316.949334 99.690667l-22.592-22.037334 34.282667-35.136 22.613333 22.037334-34.304 35.136z m85.312-88.192l-22.613333-21.930667-34.176 35.2 22.613333 21.973333 34.176-35.242666z m51.306667-52.608l-34.304 35.114666-22.314667-21.738666 34.026667-35.136 22.592 21.76z"  horiz-adv-x="1024" />

    
    <glyph glyph-name="nat" unicode="&#59218;" d="M942.933333 281.6c0-64-51.2-115.2-115.2-115.2h-104.533333l53.333333 78.933333h53.333334c19.2 0 36.266667 17.066667 36.266666 36.266667v121.6c0 19.2-17.066667 36.266667-36.266666 36.266667H179.2c-19.2 0-36.266667-17.066667-36.266667-36.266667v-121.6c0-19.2 17.066667-36.266667 36.266667-36.266667h132.266667v-78.933333H179.2c-64 0-115.2 51.2-115.2 115.2v121.6c0 64 51.2 115.2 115.2 115.2h179.2V578.133333h-72.533333L428.8 746.666667V516.266667h149.333333V744.533333h68.266667v-226.133333h181.333333c64 0 115.2-51.2 115.2-115.2v-121.6zM578.133333 34.13333299999999V392.533333h68.266667v-145.066666h72.533333l-140.8-213.333334z m-100.266666 132.266667h53.333333v78.933333h-53.333333v-78.933333z m-119.466667-113.066667h72.533333V392.533333h-72.533333v-339.2z"  horiz-adv-x="1024" />

    
    <glyph glyph-name="dds" unicode="&#59221;" d="M243.626667 652.373333v-157.866666l-53.205334-28.48V705.578667h238.464L400.213333 652.373333h-156.586666z m0-536.746666h156.437333l28.501333-53.205334H190.421333V300.88533299999995l53.205334-28.821333v-156.437333z m536.746666 0v156.757333l53.205334 28.501333v-238.464h-238.933334l28.352 53.205334h157.376z m0 536.746666h-156.906666l-28.501334 53.205334h238.613334v-237.824L780.373333 496.426667v155.946666z m-246.357333-66.666666a47.530667 47.530667 0 0 1-44.032 0.170666l-117.802667-62.08L512 789.333333l139.818667-265.685333-117.802667 62.08z m0-403.413334l117.802667 61.888L512-21.33333300000004l-139.648 265.685333 117.802667-62.08c13.76-7.253333 30.08-7.253333 43.861333 0z m179.690667 179.690667a47.530667 47.530667 0 0 1 0.170666 44.032l-62.08 117.802667L917.333333 384l-265.685333-139.818667 62.08 117.802667z m-403.413334 44.032a47.530667 47.530667 0 0 1-0.170666-44.032l62.08-117.802667L106.666667 384l265.685333 139.818667-62.08-117.802667z"  horiz-adv-x="1024" />

    
    <glyph glyph-name="kvstore" unicode="&#59222;" d="M510.208 682.218667l-101.802667-34.773334-65.706666 38.613334L511.509333 746.666667l170.133334-62.165334-64.448-37.056-106.965334 34.773334z m1.28-201.429334l101.824 34.816 65.728-38.698666-168.832-60.522667-170.069333 62.08 64.405333 37.141333 106.944-34.816z m-155.093333 51.904l-69.12-33.493333-221.653334 82.496 225.514667 83.370667 65.749333-38.848-122.410666-44.522667 121.898666-49.002667z m434.645333 49.002667l-122.410667 44.522667 65.706667 38.848 225.557333-83.370667L738.176 499.2l-69.098667 33.493333 121.962667 49.002667zM511.488 287.253333L64.96 462.357333 64 551.104l447.488-174.933333 447.573333 172.992v-89.429334l-447.573333-172.48z m1.024-33.664L960 426.624v-89.493333l-447.488-172.416-446.549333 175.061333-1.002667 88.746667 447.552-174.933334z m-447.573333 51.349334l447.573333-174.933334L960 302.997333v-89.472l-447.488-172.48-446.549333 175.104-1.002667 88.768z"  horiz-adv-x="1024" />

    
    <glyph glyph-name="rds" unicode="&#59224;" d="M392.533333 10.111999999999966l-131.413333 213.802667 71.552 116.416H216.746667L85.333333 554.154667 216.746667 768h260.288L522.666667 693.717333 568.32 768h260.266667L960 554.154667l-131.413333-213.845334h-115.925334l71.552-116.394666-131.413333-213.802667H392.533333z m207.36 413.909333L522.666667 549.76l-77.226667-125.717333h154.453333z"  horiz-adv-x="1024" />

    
    <glyph glyph-name="petadata" unicode="&#59225;" d="M882.026667-1.770667000000003c-55.68-32.234667-125.994667-11.733333-158.229334 43.946667-32.234667 55.68-11.733333 125.994667 43.946667 158.229333 55.68 32.234667 126.016 11.733333 158.229333-43.946666 32.234667-55.68 11.733333-125.994667-43.946666-158.229334z m0 134.784c-17.578667 32.234667-58.602667 43.946667-90.837334 26.368-32.213333-17.578667-43.946667-58.602667-26.368-90.837333 17.578667-32.213333 58.602667-43.946667 90.837334-26.368 32.213333 17.578667 43.946667 58.602667 26.368 90.837333zM489.386667 692.6933329999999c-41.024-23.424-93.76-8.789333-117.205334 32.234667-23.445333 41.024-8.789333 93.781333 32.213334 117.226667 41.045333 23.424 93.781333 8.789333 117.226666-32.234667 23.466667-43.946667 8.789333-96.704-32.213333-117.226667z m-11.733334 90.837334c-8.768 17.6-32.213333 23.466667-46.869333 14.656-17.578667-8.789333-23.445333-32.213333-14.656-46.869334 8.789333-17.6 32.234667-23.466667 46.890667-14.656 20.522667 8.789333 26.368 29.290667 14.656 46.869334zM184.64 335.21066699999994C137.728 308.842667 79.146667 326.4 55.68 370.346667c-26.368 46.890667-11.712 105.493333 35.178667 131.861333 46.869333 26.368 105.493333 8.789333 131.84-35.157333 23.466667-46.890667 8.810667-105.493333-38.08-131.861334z m-8.789333 105.493333c-11.733333 20.501333-41.024 29.290667-61.525334 17.578667-20.522667-11.733333-29.312-41.024-17.6-61.546667 11.733333-20.501333 41.024-29.290667 61.546667-17.578667 23.445333 11.733333 32.213333 41.024 17.578667 61.546667z m231.488-506.944c-41.024-23.445333-93.76-8.789333-117.205334 32.213333-23.445333 41.045333-8.789333 93.781333 32.234667 117.226667 41.024 23.445333 93.76 8.789333 117.205333-32.213333 23.466667-41.045333 8.789333-93.781333-32.213333-117.226667z m307.690666 419.029333l58.602667-105.493333c-8.789333-2.922667-17.578667-5.866667-26.368-11.733333-5.866667-2.922667-11.733333-8.768-17.578667-11.712l-49.834666 90.837333-76.16-82.048 93.76-41.024c-8.789333-14.634667-17.6-29.290667-20.522667-43.946667l-108.416 46.890667-93.76-102.570667c-11.733333 14.656-23.466667 26.368-38.101333 32.234667l82.048 90.837333-102.570667 46.890667-14.634667-120.149333c-17.6 5.866667-32.234667 5.866667-49.813333 5.866666l17.578667 137.728-126.016 55.68c8.789333 14.634667 17.578667 29.290667 20.522666 46.869334l111.36-49.813334 11.712 111.36-120.149333-23.466666c0 17.6-2.922667 32.256-8.789333 49.834666l134.805333 29.312 14.634667 137.706667c17.578667-5.845333 32.234667-5.845333 49.813333-5.845333l-14.634667-120.149334 111.36 23.445334-61.546666 105.493333c5.845333 2.922667 11.733333 5.845333 20.501333 8.789333 8.789333 5.845333 17.578667 11.733333 23.445333 17.578667l70.336-123.093333 140.650667 29.312c0-17.578667 2.922667-32.213333 11.733333-49.813334l-126.016-26.368 55.68-96.704 87.893334 93.781334c11.733333-14.656 23.466667-26.368 38.101333-35.157334l-99.626667-111.36z m-131.861333 131.861334l-143.573333-29.312-14.677334-143.573334 131.882667-58.602666 99.626667 105.493333-73.258667 125.994667z m348.693333 8.789333c-46.890667-26.368-105.493333-8.789333-128.938666 35.157333-26.368 46.890667-8.789333 105.493333 35.178666 128.938667 46.869333 26.368 105.493333 8.789333 128.917334-35.157333 29.312-43.946667 11.733333-102.570667-35.157334-128.938667z"  horiz-adv-x="1024" />

    
    <glyph glyph-name="slb" unicode="&#59226;" d="M793.301333 337.386667c-25.386667-0.106667-49.322667-6.528-70.869333-16.853334l-91.690667 137.173334c34.218667 30.506667 56.021333 74.517333 55.765334 123.733333-0.426667 91.477333-75.029333 165.674667-166.549334 165.226667-91.52-0.426667-165.461333-75.328-165.056-166.698667 0.213333-49.237333 22.506667-92.949333 56.768-123.242667l-90.24-138.069333c-21.738667 10.24-45.546667 16.362667-71.061333 16.256-91.392-0.405333-165.482667-75.2-165.034667-166.698667 0.298667-91.392 75.029333-165.504 166.549334-164.992 83.477333 0.32 151.744 62.805333 162.837333 143.36l216 1.002667c11.733333-80.490667 80.576-142.314667 164.117333-141.994667 91.456 0.448 165.461333 75.157333 165.162667 166.634667-0.469333 91.477333-75.306667 165.589333-166.698667 165.162667z m-162.837333-143.36l-216-0.96a165.162667 165.162667 0 0 1-54.293333 100.053333l90.325333 138.069333c21.674667-10.197333 45.546667-16.426667 71.04-16.213333a163.946667 163.946667 0 0 1 70.848 16.789333l91.733333-137.173333a164.330667 164.330667 0 0 1-53.653333-100.544z"  horiz-adv-x="1024" />

    
    <glyph glyph-name="vpc" unicode="&#59227;" d="M414.357333 549.866667l30.805334 12.330666c6.186667-18.496 12.330667-30.826667 18.517333-43.157333h12.309333c37.013333 0 61.653333-30.826667 61.653334-61.653333v-6.165334c49.322667-18.496 151.616-52.437333 160.32-55.509333 12.309333 24.682667 36.992 43.157333 67.818666 43.157333h6.186667c6.186667 30.826667 12.309333 55.509333 18.496 80.149334H747.306667c0 6.186667-49.322667 184.981333-240.490667 184.981333h-43.136c-98.666667-18.496-154.154667-61.653333-178.816-104.832 49.344-36.992 98.666667-74.005333 147.989333-98.645333-6.186667 18.517333-12.330667 30.848-18.496 49.344z m-6.186666 111.018666c6.186667-18.496 12.330667-30.826667 18.496-49.322666l-30.826667-12.330667-18.496 55.466667 30.826667 6.186666z m258.986666-443.968h12.330667c18.496 30.826667 30.826667 55.509333 43.136 86.314667-18.496 12.330667-30.826667 37.013333-30.826667 61.653333-10.688 2.773333-117.141333 37.013333-172.650666 55.509334-6.186667-18.496-24.682667-24.682667-43.157334-24.682667-36.992 0-61.653333 30.826667-61.653333 61.653333v12.330667c-49.322667 30.826667-92.458667 61.653333-141.781333 98.645333-18.517333-55.509333-12.330667-98.645333-12.330667-104.832 0 0-203.477333-12.309333-234.304-160.298666-37.013333-184.981333 160.298667-252.8 228.117333-252.8h295.978667c30.805333 24.661333 55.488 55.488 74.005333 86.314666 0 6.186667-6.186667 18.496-6.186666 30.826667 0 30.869333 24.682667 49.365333 49.322666 49.365333z m-123.328 92.501334c-12.330667 12.330667-24.682667 30.826667-30.826666 43.157333l24.682666 18.496c6.186667-12.330667 18.496-30.826667 30.826667-43.157333l-24.682667-18.496z m30.826667-43.178667l24.682667 18.496c12.309333-12.309333 18.496-30.826667 30.826666-43.136l-24.682666-18.517333c-12.330667 12.330667-24.682667 24.682667-30.826667 43.157333z m425.472 55.509333c-43.157333 0-104.832 6.186667-166.485333 12.309334-12.330667-24.661333-37.013333-43.136-67.84-43.136h-6.186667c-12.309333-30.826667-30.805333-61.653333-43.136-92.48 6.186667-6.186667 12.330667-18.496 12.330667-30.826667 0-30.826667-24.682667-49.322667-49.322667-49.322667h-12.330667c-18.496-24.682667-36.992-43.157333-55.509333-67.84h147.989333c6.186667 0 160.298667 0 234.304 141.802667 6.186667 43.157333 12.330667 86.336 6.186667 129.493333zM747.306667 56.59733300000005l-37.013334 37.013334 24.682667 24.682666 36.992-37.013333-24.682667-24.682667z m246.613333 295.978667c-18.496 80.149333-80.149333 141.802667-172.650667 160.298667-6.186667-24.682667-12.330667-55.509333-18.496-86.336 18.496-12.330667 30.805333-30.826667 36.992-61.653334 61.653333-6.186667 110.976-12.309333 154.154667-12.309333z"  horiz-adv-x="1024" />

    
    <glyph glyph-name="drds" unicode="&#59228;" d="M686.933333 686.570667l-174.570666 107.648-174.592-107.648v-210.197334l174.592-107.648 179.733333 107.648V686.570667H686.933333z m-46.186666-179.413334l-128.384-76.906666L384 507.136v148.672l128.362667 76.885333 128.384-76.885333v-148.672zM132.373333 302.08000000000004v-210.176l174.592-107.648 174.592 107.648V302.08000000000004l-174.592 107.669333-174.592-107.669333z m302.976-30.741333v-148.672l-128.384-76.885334-128.384 76.885334v148.672l128.384 76.885333 128.384-76.885333z m277.269334 138.410666l-174.570667-107.669333v-210.176l179.712-107.648 174.592 107.648V302.08000000000004l-179.733333 107.669333z m128.384-281.962666l-123.242667-76.885334-128.362667 71.765334v143.530666l128.362667 76.906667 123.242667-71.765333v-143.552z"  horiz-adv-x="1024" />

    
    <glyph glyph-name="arms" unicode="&#59230;" d="M873.216 618.666667a108.309333 108.309333 0 0 1-108.330667-108.330667c0-18.048 4.48-35.221333 12.48-49.92L600.832 285.866667a62.805333 62.805333 0 0 1-31.424 8.021333c-7.146667 0-13.824-1.344-20.053333-3.349333l-71.125334 97.408c0.661333 3.349333 0.661333 6.698667 0.661334 10.026666a64.213333 64.213333 0 0 1-64.192 64.213334 64.405333 64.405333 0 0 1-64.426667-64.213334v-1.109333l-102.976-100.074667H162.154667a64.426667 64.426667 0 0 1-54.826667 30.976A64.682667 64.682667 0 0 1 42.666667 263.12533299999996a64.682667 64.682667 0 0 1 64.64-64.64 65.066667 65.066667 0 0 1 56.618666 33.429334h110.570667l111.445333 108.330666c9.152-4.672 19.178667-7.125333 29.44-7.125333 7.338667 0 14.485333 1.344 20.714667 3.797333l70.229333-96.746666a62.976 62.976 0 0 1-1.130666-11.157334 64.213333 64.213333 0 0 1 64.213333-64.192 64.341333 64.341333 0 0 1 64.192 62.634667l188.586667 187.029333A108.309333 108.309333 0 0 1 981.333333 510.122667 108.16 108.16 0 0 1 873.216 618.666667z m1.557333-154.474667a46.144 46.144 0 0 0-45.909333 45.909333c-0.426667 25.429333 20.501333 45.930667 45.909333 45.930667 25.429333 0 45.930667-20.736 45.930667-45.930667a45.866667 45.866667 0 0 0-45.930667-45.909333z"  horiz-adv-x="1024" />

    
    <glyph glyph-name="actiontrail" unicode="&#59231;" d="M512 853.333333C252.736 853.333333 42.666667 643.136 42.666667 383.914667 42.666667 124.69333300000005 252.736-85.33333300000004 512-85.33333300000004s469.333333 210.197333 469.333333 469.248C981.333333 642.944 771.264 853.333333 512 853.333333z m18.56-450.88l-0.213333 196.8a215.893333 215.893333 0 0 0 149.845333-79.68l-149.653333-117.12z m-37.12 0h-196.821333a215.957333 215.957333 0 0 0 196.842666 196.8v-196.8z m0-36.906666v-196.8a215.957333 215.957333 0 0 0-196.821333 196.8h196.842666z m37.12 0h196.821333a215.957333 215.957333 0 0 0-196.842666-196.8v196.8z m181.76 179.2a256.576 256.576 0 0 1-181.76 95.445333V712.341333c96.576-5.333333 181.973333-52.330667 238.698667-123.178666l-56.938667-44.437334zM493.44 640c-127.061333-8.981333-228.586667-110.506667-237.589333-237.546667H183.509333C192.853333 569.322667 326.549333 703.146667 493.44 712.3199999999999v-72.32zM255.872 365.54666699999996C264.853333 238.506667 366.378667 136.98133299999995 493.461333 128v-72.341333c-166.912 9.173333-300.778667 143.018667-309.973333 309.888h72.362667z m274.688-237.738667c127.082667 9.002667 228.608 110.506667 237.610667 237.568h72.341333c-9.173333-166.890667-143.04-300.714667-309.952-309.909333v72.341333zM847.658667 650.666667l-46.634667-36.544A369.237333 369.237333 0 0 1 530.346667 753.088V812.202667A428.181333 428.181333 0 0 0 847.658667 650.666667zM493.461333 812.202667v-59.093334C304.149333 743.701333 152.106667 591.893333 142.933333 402.432H83.626667c9.536 221.952 187.84 400.384 409.813333 409.749333zM83.605333 365.54666699999996H142.933333c9.386667-189.44 161.237333-341.290667 350.72-350.634667v-59.114667c-222.165333 9.365333-400.469333 187.605333-410.026666 409.749334z m446.933334-409.749334v59.093334c189.504 9.386667 341.354667 161.194667 350.72 350.656h59.136c-9.557333-222.144-187.861333-400.384-409.856-409.749334z"  horiz-adv-x="1024" />

    
    <glyph glyph-name="gts" unicode="&#59232;" d="M644.266667 552.5333330000001c55.466667-8.533333 106.666667-40.533333 140.8-78.933333 40.533333-46.933333 70.4-108.8 78.933333-172.8 6.4-38.4 2.133333-74.666667-2.133333-110.933333-12.8-23.466667-51.2-78.933333-123.733334-136.533334 2.133333 4.266667 4.266667 6.4 4.266667 10.666667 25.6 51.2 49.066667 98.133333 55.466667 153.6 6.4 57.6-4.266667 119.466667-27.733334 168.533333-12.8 27.733333-32 51.2-55.466666 70.4-8.533333 34.133333-32 66.133333-70.4 96z m44.8-288c19.2 21.333333 27.733333 59.733333 34.133333 108.8 14.933333-25.6 23.466667-51.2 25.6-78.933333 8.533333-78.933333-17.066667-155.733333-72.533333-219.733333-34.133333-38.4-76.8-70.4-125.866667-93.866667-83.2-10.666667-147.2 6.4-204.8 32 78.933333-6.4 164.266667 12.8 228.266667 55.466667 61.866667 42.666667 100.266667 100.266667 110.933333 170.666666 4.266667 8.533333 4.266667 17.066667 4.266667 25.6zM106.666667 339.20000000000005c49.066667-91.733333 130.133333-168.533333 215.466666-194.133333 64-19.2 123.733333-10.666667 181.333334 23.466666h6.4c19.2 0 38.4 2.133333 57.6 8.533334 17.066667 4.266667 34.133333 12.8 51.2 21.333333-6.4-10.666667-12.8-19.2-19.2-29.866667-36.266667-44.8-83.2-74.666667-134.4-87.466666-25.6-6.4-51.2-8.533333-76.8-8.533334-57.6 2.133333-117.333333 21.333333-174.933334 55.466667-12.8 6.4-23.466667 14.933333-34.133333 23.466667C145.066667 198.39999999999998 106.666667 266.66666699999996 106.666667 339.20000000000005z m219.733333-68.266667c19.2-36.266667 49.066667-61.866667 89.6-83.2h-29.866667c-83.2 8.533333-151.466667 51.2-192 121.6-29.866667 51.2-46.933333 115.2-49.066666 187.733334 0 25.6 0 49.066667 4.266666 74.666666 27.733333 76.8 72.533333 121.6 130.133334 145.066667-27.733333-42.666667-46.933333-89.6-57.6-138.666667-14.933333-64-14.933333-123.733333-2.133334-177.066666 17.066667-57.6 51.2-102.4 106.666667-130.133334z m2.133333 234.666667c-32-36.266667-38.4-81.066667-38.4-128-32 64-32 155.733333-2.133333 224 25.6 53.333333 66.133333 102.4 121.6 138.666667C448 763.733333 486.4 778.666667 526.933333 789.333333c83.2-10.666667 157.866667-38.4 183.466667-51.2h-17.066667c-59.733333 0-117.333333 2.133333-172.8-17.066666-55.466667-19.2-104.533333-49.066667-138.666666-91.733334-25.6-29.866667-46.933333-76.8-53.333334-123.733333zM864 576c40.533333-55.466667 49.066667-157.866667 49.066667-189.866667v-6.4c-2.133333 4.266667-4.266667 10.666667-6.4 14.933334-8.533333 19.2-14.933333 38.4-25.6 55.466666-23.466667 36.266667-46.933333 64-72.533334 87.466667-57.6 49.066667-128 76.8-189.866666 74.666667-21.333333 0-51.2-4.266667-78.933334-12.8-10.666667 2.133333-21.333333 2.133333-32 2.133333-8.533333 0-17.066667 0-25.6-2.133333-10.666667-2.133333-21.333333-2.133333-32-6.4-14.933333-4.266667-27.733333-8.533333-38.4-14.933334 27.733333 38.4 72.533333 68.266667 132.266667 85.333334 68.266667 19.2 153.6 10.666667 228.266667-25.6 32-12.8 61.866667-34.133333 91.733333-61.866667z"  horiz-adv-x="1024" />

    
    <glyph glyph-name="edas" unicode="&#59233;" d="M434.346667 314.581333c0-5.162667-3.072-9.813333-7.829334-11.84L169.664 193.27999999999997a12.8 12.8 0 0 0-12.224 1.066667 12.650667 12.650667 0 0 0-5.824 10.773333V494.72c0 4.394667 2.112 8.32 5.76 10.730667a12.821333 12.821333 0 0 0 12.181333 1.173333l256.853334-106.88a12.842667 12.842667 0 0 0 7.957333-11.882667v-73.28z m0-247.338666a12.693333 12.693333 0 0 0-5.653334-10.666667 12.778667 12.778667 0 0 0-12.053333-1.301333l-206.272 81.322666a12.693333 12.693333 0 0 0-8.192 11.818667 12.693333 12.693333 0 0 0 7.936 12.032l206.293333 86.442667a12.864 12.864 0 0 0 12.16-1.152 12.650667 12.650667 0 0 0 5.802667-10.730667v-167.765333z m32.106666 361.066666L135.744 566.869333a21.013333 21.013333 0 0 1-19.712-1.856 20.778667 20.778667 0 0 1-9.365333-17.365333V145.06666700000005c0-8.405333 5.034667-15.936 12.821333-19.2l330.709333-138.496a20.970667 20.970667 0 0 1 29.056 19.2v402.56a20.8 20.8 0 0 1-12.8 19.2zM854.101333 205.12c0-4.416-2.133333-8.32-5.824-10.752a12.8 12.8 0 0 0-12.224-1.109333l-256.853333 109.482666a12.864 12.864 0 0 0-7.850667 11.84v73.28c0 5.205333 3.114667 9.877333 7.957334 11.882667l256.853333 106.88a12.821333 12.821333 0 0 0 12.16-1.173333c3.669333-2.432 5.76-6.336 5.76-10.730667v-289.6z m-58.752-68.544l-206.293333-81.322667a12.778667 12.778667 0 0 0-12.032 1.322667 12.693333 12.693333 0 0 0-5.674667 10.666667v167.765333c0 4.394667 2.112 8.298667 5.802667 10.730667a12.8 12.8 0 0 0 12.16 1.152l206.293333-86.442667a12.693333 12.693333 0 0 0 7.914667-12.032 12.693333 12.693333 0 0 0-8.170667-11.84z m94.336 428.437333a20.970667 20.970667 0 0 1-19.712 1.856l-330.709333-138.56a20.8 20.8 0 0 1-12.8-19.2v-402.56a20.906667 20.906667 0 0 1 29.056-19.2l330.709333 138.496a20.8 20.8 0 0 1 12.8 19.2V547.648a20.757333 20.757333 0 0 1-9.344 17.365333zM768.576 616.64l-223.36-79.402667a17.237333 17.237333 0 0 0-23.082667 16.170667V718.592a17.173333 17.173333 0 0 0 17.28 17.173333c2.090667 0 4.202667-0.362667 6.208-1.152l223.36-85.76a17.045333 17.045333 0 0 0 11.050667-16.234666 17.045333 17.045333 0 0 0-11.456-15.978667z m-281.664-63.232a17.258667 17.258667 0 0 0-23.061333-16.192l-223.36 79.424a17.024 17.024 0 0 0-11.456 15.978667 17.045333 17.045333 0 0 0 11.029333 16.234666l223.36 85.76a17.216 17.216 0 0 0 16-1.856c4.693333-3.2 7.488-8.512 7.488-14.165333v-165.184z m392.32 78.805333a19.690667 19.690667 0 0 1-12.842667 18.688L512.832 787.968a20.245333 20.245333 0 0 1-14.656 0L145.514667 650.88c-7.914667-3.093333-12.821333-10.24-12.821334-18.688s4.906667-15.616 12.821334-18.688l352.469333-136.853333a20.330667 20.330667 0 0 1 14.613333 0l353.792 136.853333a19.669333 19.669333 0 0 1 12.842667 18.688z"  horiz-adv-x="1024" />

    
    <glyph glyph-name="live" unicode="&#59234;" d="M364.828444 162.19022199999995c-5.461333 0-10.951111 1.336889-15.957333 4.181334a31.857778 31.857778 0 0 0-15.957333 27.534222v225.223111a31.857778 31.857778 0 0 0 47.644444 27.534222l195.043556-112.611555c9.841778-5.688889 15.957333-16.156444 15.957333-27.534223s-6.115556-21.873778-15.928889-27.562666l-195.072-112.583111c-4.807111-2.645333-10.268444-4.181333-15.729778-4.181334z m-125.297777 56.32c0.426667 0.426667 0 0 0 0z m487.367111 20.878222h157.013333c-41.756444-208.384-227.84-363.406222-447.601778-358.371555C189.895111-113.52177800000004-5.347556 90.93688899999995 0.113778 337.35111099999995 5.347556 577.848889 200.192 769.194667 438.499556 773.12l113.066666 0.426667-105.415111-152.405334c-159.175111 0-290.360889-127.232-293.831111-287.288889-3.754667-162.247111 125.041778-296.96 287.488-300.430222 134.058667-3.072 249.059556 84.195556 287.089778 205.966222z m19.256889 115.882667a369.720889 369.720889 0 0 1-165.091556 278.357333l45.255111 56.832c108.032-73.472 181.475556-193.706667 192.199111-330.154666l-72.362666-5.034667z m148.252444 16.412445c-11.605333 150.414222-91.847111 282.936889-210.346667 364.942222l45.255112 56.832c133.802667-94.464 224.341333-245.560889 237.454222-416.768l-72.362667-5.006222z m142.563556 24.689777c-13.795556 181.703111-109.340444 341.987556-251.022223 442.766223L831.203556 896C988.444444 782.734222 1094.030222 603.875556 1109.333333 401.408l-72.362666-5.034667z"  horiz-adv-x="1109" />

    
    <glyph glyph-name="mq" unicode="&#59235;" d="M750.101333 238.10133299999995c-16.512 0-30.272-2.752-44.032-8.256l-44.053333 52.309334c33.045333 38.528 55.061333 90.837333 55.061333 145.877333 0 55.061333-19.264 101.866667-52.309333 140.394667l27.52 24.768c16.533333-8.256 33.066667-13.76 52.309333-13.76 63.317333 0 115.626667 52.309333 115.626667 115.626666C860.224 758.357333 807.893333 810.666667 744.597333 810.666667c-63.296 0-115.626667-52.309333-115.626666-115.626667 0-13.76 2.773333-30.272 8.277333-41.28l-35.776-30.293333a223.146667 223.146667 0 0 1-112.853333 30.293333c-44.053333 0-85.333333-13.76-121.130667-33.024l-41.301333 52.288c0 5.504 2.773333 13.781333 2.773333 19.285333a74.026667 74.026667 0 0 1-74.325333 74.304 74.026667 74.026667 0 0 1-74.325334-74.304 74.026667 74.026667 0 0 1 74.304-74.325333h8.277334l44.032-55.04c-27.52-38.549333-46.784-85.333333-46.784-134.890667 0-35.797333 8.256-71.573333 24.746666-101.866666l-35.776-30.293334c-8.256 5.525333-19.264 5.525333-30.272 5.525334C169.28 301.418667 128 260.13866700000005 128 210.58133299999997s41.28-90.837333 90.837333-90.837333 90.837333 41.28 90.837334 90.837333c0 8.256 0 16.512-2.752 24.768l30.293333 27.52c41.28-35.776 93.568-57.813333 154.133333-57.813333 33.045333 0 63.317333 5.525333 90.837334 19.285333l46.805333-57.813333c-11.008-19.264-19.264-44.032-19.264-68.8 0-77.077333 63.296-140.394667 143.146667-140.394667 79.808 0 143.146667 63.317333 143.146666 140.373334 0 77.098667-66.090667 140.394667-145.92 140.394666z m-261.504 11.008c-99.093333 0-181.674667 79.829333-181.674666 178.922667 0 99.114667 82.581333 178.944 181.674666 178.944s181.674667-79.829333 181.674667-178.944c0-99.093333-82.56-178.922667-181.674667-178.922667z m-57.813333 181.696a33.024 33.024 0 1 0-66.026667-0.021333 33.024 33.024 0 0 0 66.048 0z m88.106667 0a33.024 33.024 0 1 0-66.048-0.021333 33.024 33.024 0 0 0 66.048 0z m90.837333 0a33.024 33.024 0 1 0-66.048-0.021333 33.024 33.024 0 0 0 66.048 0z"  horiz-adv-x="1024" />

    
    <glyph glyph-name="ram" unicode="&#59236;" d="M427.050667 339.47733300000004s-18.986667 172.032-187.221334 172.032C71.573333 511.509333 42.666667 351.274667 42.666667 316.202667c0-35.072-2.474667-202.496 200-202.496h530.773333S981.333333 119.12533299999996 981.333333 327.893333c0 208.746667-230.954667 227.114667-242.517333 227.114667 0 0-29.674667 170.325333-217.749333 170.325333-188.053333 0-214.442667-180.352-214.442667-180.352s54.442667-26.730667 54.442667-33.386666c0 0 39.573333 145.28 156.714666 145.28 117.12 0 171.584-101.866667 171.584-173.674667 0 0 219.413333 8.106667 219.413334-155.306667 0-141.952-135.296-140.266667-135.296-140.266666H247.210667s-136.896-11.904-136.896 123.584c0 0 4.949333 131.925333 130.325333 131.925333 0 0 118.762667 0.853333 127.146667-125.674667l4.032-48.853333 371.989333-0.853333v68.48h-57.749333v51.328h-65.962667v-50.624h-24.746667v50.730666H526.08v-49.493333l-98.986667 1.258667-0.021333 0.042666z"  horiz-adv-x="1024" />

    
    <glyph glyph-name="schedulerx" unicode="&#59237;" d="M504.32 446.144a59.306667 59.306667 0 0 0 59.2-59.221333 59.306667 59.306667 0 0 0-59.221333-59.2 59.306667 59.306667 0 0 0-59.221334 59.221333 59.306667 59.306667 0 0 0 59.221334 59.2zM501.354667-85.33333300000004a466.944 466.944 0 0 1 332.010666 137.322666c88.533333 88.533333 137.322667 206.421333 137.322667 332.010667a466.944 466.944 0 0 1-137.322667 332.010667C744.853333 804.565333 626.944 853.333333 501.376 853.333333 279.530667 853.333333 88.149333 697.130667 42.666667 480.618667h73.344c38.485333 155.84 169.578667 275.733333 327.978666 299.2l8.789334 1.28v-27.861334h103.210666V778.346667l9.002667-1.472a396.949333 396.949333 0 0 0 329.450667-329.450667l1.450666-8.96h-28.224v-103.04h27.861334l-1.28-8.810667c-11.733333-83.968-49.877333-160.213333-110.357334-220.736a396.522667 396.522667 0 0 0-219.093333-111.829333l-8.981333-1.472v30.997333h-103.04v-33.92l-8.96 1.472c-110.570667 17.962667-208.469333 79.36-269.525334 168.832H90.517333C174.485333 8.341332999999963 330.688-85.33333300000004 501.376-85.33333300000004z m-17.792 816h41.429333v-83.029334h-41.429333V730.666667z m0-88.896h41.429333v-83.050667h-41.429333v83.050667z m0-88.917334h41.429333v-83.050666h-41.429333v83.050666zM762.24 416.64h79.936v-41.450667H762.24V416.64z m-88.896 0h83.029333v-41.450667h-83.029333V416.64z m-88.917333-2.944h83.050666v-41.429333h-83.050666v41.429333z m-100.842667-97.898667h41.429333v-83.050666h-41.429333v83.050666z m0-88.917333h41.429333v-83.050667h-41.429333v83.050667z m0-88.746667h41.429333v-83.029333h-41.429333v83.050667z"  horiz-adv-x="1024" />

    
    <glyph glyph-name="ros" unicode="&#59238;" d="M708.266667 497.066667c151.466667 0 236.8-119.466667 236.8-236.8s-87.466667-236.8-236.8-236.8c0 0-98.133333-2.133333-157.866667 61.866666l34.133333 44.8s34.133333-53.333333 123.733334-53.333333 183.466667 76.8 183.466666 183.466667c0 100.266667-76.8 183.466667-183.466666 183.466666-34.133333 0-59.733333-6.4-78.933334-12.8l27.733334-55.466666-134.4 27.733333 59.733333 119.466667 21.333333-44.8c25.6 10.666667 57.6 19.2 104.533334 19.2z m-78.933334-328.533334L580.266667 192c-25.6-74.666667-110.933333-168.533333-232.533334-168.533333-128 0-236.8 89.6-236.8 245.333333s136.533333 213.333333 136.533334 213.333333l4.266666-29.866666 8.533334-27.733334c-46.933333-19.2-96-72.533333-96-155.733333s59.733333-192 183.466666-192c108.8 0 166.4 113.066667 181.333334 142.933333l-44.8 21.333334 119.466666 61.866666 25.6-134.4z m-324.266666 134.4l36.266666 34.133334c-29.866667 32-64 89.6-64 177.066666C277.333333 618.666667 360.533333 742.4 514.133333 742.4c185.6 0 236.8-162.133333 236.8-200.533333 0-10.666667 2.133333-19.2 2.133334-19.2-38.4 8.533333-53.333333 4.266667-53.333334 4.266666 6.4 19.2 0 14.933333 0 14.933334 0 59.733333-89.6 149.333333-183.466666 149.333333-96 0-183.466667-72.533333-183.466667-174.933333 0-74.666667 29.866667-119.466667 49.066667-140.8l38.4 34.133333 17.066666-123.733333-132.266666 17.066666z"  horiz-adv-x="1024" />

    
    <glyph glyph-name="kms" unicode="&#59239;" d="M315.392101 187.60188900000003l-141.206902-141.206902-59.995867 59.995867 141.206902 141.206902a320.748143 320.748143 0 0 0-29.223369 45.607361L39.594909 106.60090500000001l134.800341-134.800341 44.189516 44.189516 42.194029-42.19403 66.612479 66.612479-42.194029 42.19403 75.775961 75.802217c-15.990146 8.402047-31.192599 18.195683-45.581105 29.197113zM938.981525 151.99821499999996l42.194029 42.19403-66.586222 66.612479-42.19403-42.19403-75.802217 75.775961c-8.402047-15.990146-18.011888-31.192599-29.197113-45.791156l140.786799-140.786799-59.995866-59.995867-140.603005 140.576748c-14.388505-11.185225-29.590959-21.005117-45.423567-29.407164l186.026572-185.974059 134.800341 134.800342-44.005721 44.189515zM218.794817 735.389096A410.571277 410.571277 0 0 0 510.949744 856.404829c110.408149 0 214.199685-43.007978 292.20744-121.015733a410.571277 410.571277 0 0 0 120.989476-292.181184h39.804698a450.297205 450.297205 0 0 1-35.603674 176.180423 450.428487 450.428487 0 0 1-96.99113 144.016336 450.428487 450.428487 0 0 1-143.99008 96.99113A449.588282 449.588282 0 0 1 511.186052 895.999475c-61.177405 0-120.411836-11.999173-176.390474-35.603674-54.009408-22.790552-102.399947-55.400997-144.016336-96.99113a450.428487 450.428487 0 0 1-96.99113-144.016336 449.588282 449.588282 0 0 1-35.603674-176.180423h39.594646c0 110.381892 43.007978 214.199685 121.015733 292.181184zM606.575541 163.60354299999995a295.515746 295.515746 0 0 1 200.021231 279.604369 293.546516 293.546516 0 0 1-86.619853 208.790867 293.546516 293.546516 0 0 1-208.790867 86.593597 293.546516 293.546516 0 0 1-208.790868-86.593597 293.546516 293.546516 0 0 1-86.619853-208.790867c0-127.002191 81.211035-239.195775 200.021231-279.630626V-128h190.778979v62.59525h59.602021v94.207952h-59.602021v134.800341z m-33.398136 45.187259l-19.797324-5.198767v-278.58037h-84.388059v278.58037l-19.797323 5.198767a242.504081 242.504081 0 0 0-180.407702 234.41711c0 133.592547 108.806508 242.399055 242.399055 242.399055 133.592547 0 242.399055-108.806508 242.399055-242.399055 0-110.014303-74.200577-206.401535-180.381446-234.41711zM511.186052 621.620128a178.543498 178.543498 0 0 1-178.412216-178.412216 178.543498 178.543498 0 0 1 178.412216-178.412216 178.543498 178.543498 0 0 1 178.38596 178.412216 178.543498 178.543498 0 0 1-178.38596 178.38596z m0-330.410497a152.182076 152.182076 0 0 0-152.024538 151.998281 152.182076 152.182076 0 0 0 152.024538 151.998281 152.182076 152.182076 0 0 0 151.998281-152.024537 152.182076 152.182076 0 0 0-152.024538-151.972025z"  horiz-adv-x="1024" />

    
    <glyph glyph-name="vod" unicode="&#59240;" d="M606.933333 301.35466699999995a18.688 18.688 0 0 0-9.6 16.618666v135.338667c0 6.890667 3.605333 13.162667 9.6 16.618667 5.973333 3.413333 13.141333 3.413333 19.136 0l117.269334-67.626667c5.973333-3.413333 9.557333-9.728 9.557333-16.597333a19.029333 19.029333 0 0 0-9.557333-16.597334l-117.269334-67.754666a19.541333 19.541333 0 0 0-19.136 0M976.298667 394.602667a316.885333 316.885333 0 0 1-88.021334 228.458666 318.506667 318.506667 0 0 1-225.130666 99.370667c-111.210667 2.773333-214.997333-51.968-275.968-145.578667l-6.314667-9.685333-9.941333 5.866667a30.229333 30.229333 0 0 1-9.216 3.776 262.976 262.976 0 0 1-38.634667 2.901333c-142.869333 0-259.093333-116.224-259.093333-259.050667 0-142.848 116.224-259.072 259.093333-259.072 92.928 0 176.853333 48.512 223.424 127.872H461.44a190.293333 190.293333 0 0 0-138.154667-59.2c-105.216 0-190.805333 85.568-190.805333 190.762667s85.589333 190.784 190.805333 190.784c5.269333 0 10.581333-0.213333 15.701334-0.832l14.272-1.706667-4.117334-13.738666a332.501333 332.501333 0 0 1-13.824-80.768l-0.170666-12.821334v-85.226666l89.450666 90.24a229.674667 229.674667 0 0 0 71.338667 162.304c44.714667 42.773333 103.381333 65.28 165.184 64.106666a229.44 229.44 0 0 0 162.005333-71.338666 229.824 229.824 0 0 0 64.149334-165.184c-2.688-122.538667-102.933333-222.677333-224.874667-226.048l-62.016-89.664 61.354667 0.149333c172.394667 2.88 310.677333 140.522667 314.581333 313.322667"  horiz-adv-x="1024" />

    
    <glyph glyph-name="tms" unicode="&#59241;" d="M430.569739 422.800696c0 14.60313 7.902609 28.115478 20.702609 35.417043a41.961739 41.961739 0 0 0 41.449739 0l113.018435-64.400696c12.844522-7.279304 20.72487-20.813913 20.724869-35.394782 0-14.60313-7.880348-28.115478-20.702608-35.439304l-112.973913-64.378435a41.805913 41.805913 0 0 0-41.472 0 40.737391 40.737391 0 0 0-20.747131 35.394782v128.801392z m455.813565 94.007652v-0.066783a392.904348 392.904348 0 0 0 28.983653-150.706087 394.195478 394.195478 0 0 0-32.901566-155.469913 395.085913 395.085913 0 0 0-91.558956-130.626782 404.74713 404.74713 0 0 0-130.671305-82.944 32.50087 32.50087 0 0 0-42.073043 17.897739 31.877565 31.877565 0 0 0 18.098087 41.627826 338.498783 338.498783 0 0 1 109.857391 69.676522 332.755478 332.755478 0 0 1 76.866783 109.612521 331.197217 331.197217 0 0 1 3.205565 257.179826 337.118609 337.118609 0 0 1-70.678261 108.52174c-62.998261 64.823652-152.153043 102.622609-243.177739 103.112347a32.345043 32.345043 0 0 0-31.654956 26.089739 31.899826 31.899826 0 0 0 19.856695 35.661914l199.635478 105.071304a32.612174 32.612174 0 0 0 42.22887-17.875478 31.877565 31.877565 0 0 0-18.098087-41.627826L633.366261 749.746087a407.262609 407.262609 0 0 0 169.026782-103.958261 398.981565 398.981565 0 0 0 83.990261-128.979478zM503.206957 31.610435000000052v0.022261c15.404522 0 28.716522-11.01913 31.610434-26.067479a31.899826 31.899826 0 0 0-19.812174-35.661913l-185.789217-73.349565a32.50087 32.50087 0 0 0-42.073043 17.897739 31.877565 31.877565 0 0 0 18.075826 41.627826l77.06713 30.386087a406.28313 406.28313 0 0 0-169.026783 103.958261 397.222957 397.222957 0 0 0-84.123826 128.979478A394.752 394.752 0 0 0 133.12 525.5791300000001a395.887304 395.887304 0 0 0 91.536696 130.515479 403.411478 403.411478 0 0 0 130.671304 83.033043 32.478609 32.478609 0 0 0 42.073043-17.897739 31.877565 31.877565 0 0 0-18.098086-41.605565 338.498783 338.498783 0 0 1-109.835131-69.676522 332.777739 332.777739 0 0 1-76.889043-109.612522 329.037913 329.037913 0 0 1-27.603479-130.515478 332.955826 332.955826 0 0 1 24.420174-126.664348 337.741913 337.741913 0 0 1 70.656-108.410435c63.109565-64.934957 152.041739-102.622609 243.177739-103.134608z"  horiz-adv-x="1024" />

    
    <glyph glyph-name="cloudmonitor" unicode="&#59242;" d="M597.5008 584.5333330000001c-32 4.266667-64 6.4-96 6.4-55.466667 0-110.933333-6.4-164.266667-17.066666s-104.533333-27.733333-153.6-46.933334c-49.066667-21.333333-98.133333-51.2-98.133333-51.2-21.333333-12.8-27.733333-42.666667-14.933333-64l130.133333-192c14.933333-21.333333 44.8-27.733333 66.133333-14.933333 0 0 12.8 8.533333 42.666667 21.333333s59.733333 21.333333 91.733333 27.733334c32 6.4 64 10.666667 98.133334 10.666666l93.866666 317.866667 4.266667 2.133333z m119.466667-23.466666L699.9008 746.666667 597.5008 584.5333330000001c23.466667-2.133333 44.8-6.4 68.266667-10.666666l51.2-12.8z m-211.2-298.666667l-44.8-153.6 74.666666-68.266667 102.4 23.466667 29.866667 172.8c-21.333333 6.4-42.666667 12.8-64 17.066667-32 4.266667-64 8.533333-98.133333 8.533333z m411.733333 213.333333s-49.066667 29.866667-98.133333 51.2c-32 12.8-66.133333 25.6-100.266667 34.133334v-8.533334l-55.466667-315.733333c8.533333-4.266667 19.2-6.4 27.733334-10.666667 29.866667-12.8 42.666667-21.333333 42.666666-21.333333 21.333333-12.8 53.333333-6.4 66.133334 14.933333l130.133333 192c17.066667 23.466667 10.666667 51.2-12.8 64z"  horiz-adv-x="1024" />

    
    <glyph glyph-name="apigateway" unicode="&#59243;" d="M523.776 465.386667l-152.938667-88.448 153.28-88.618667 152.746667 88.789333-153.088 88.277334z m-165.76-108.458667l0.512-177.066667 153.792-87.402666-0.853333 176.874666-153.450667 87.594667z m329.984 0l-153.450667-87.594667-0.853333-176.704 153.813333 87.402667 0.490667 176.896z m131.392-205.802667l-68.266667 40.896 39.68 8.725334-5.802666 26.176-67.242667-14.890667h-0.170667l-13.674666-22.933333 101.610666-60.885334 13.866667 22.912z m-142.848-7.68l68.074667-40.896-39.68-8.896 5.824-26.005333 67.221333 14.72h0.170667l13.696 22.912-101.632 61.077333-13.674667-22.933333zM481.493333 471.168h26.88v118.549333h-26.88v-79.530666l-27.882666 29.589333-19.328-18.474667 47.210666-50.133333z m53.546667 118.549333v-118.549333h26.688v79.573333l27.882667-29.610666 19.498666 18.474666-47.36 49.941334v0.170666H535.04z m-190.570667-401.834666l-13.504 23.104-68.608-40.213334 11.306667 39.018667-25.664 7.36-19.157333-66.218667h-0.170667l13.504-23.082666 102.293333 60.032z m-88.768-82.965334l13.504-23.082666 68.608 40.192-11.306666-38.997334 25.664-7.36 19.328 66.026667v0.170667l-13.504 23.104-102.293334-60.053334z m621.824 45.333334a82.496 82.496 0 0 1-82.453333-82.453334 82.496 82.496 0 0 1 82.453333-82.453333A82.496 82.496 0 0 1 960 67.84000000000003a82.496 82.496 0 0 1-82.453333 82.453333z m0-123.157334a40.533333 40.533333 0 1 0 0 81.066667 40.533333 40.533333 0 1 0 0-81.066667zM521.898667 603.093333a82.496 82.496 0 0 1 82.453333 82.453334A82.496 82.496 0 0 1 521.898667 768a82.389333 82.389333 0 0 1-82.453334-82.453333 82.389333 82.389333 0 0 1 82.453334-82.453334z m0 122.986667a40.533333 40.533333 0 1 0 0-81.066667 40.533333 40.533333 0 1 0 0 81.066667zM167.786667 146.85866699999997A82.496 82.496 0 0 1 85.333333 64.40533300000004a82.496 82.496 0 0 1 82.453334-82.453333 82.496 82.496 0 0 1 82.453333 82.453333 82.282667 82.282667 0 0 1-82.453333 82.453334z m0-123.008a40.533333 40.533333 0 1 0 0 81.088 40.533333 40.533333 0 1 0 0-81.066667z"  horiz-adv-x="1024" />

    
    <glyph glyph-name="cps" unicode="&#59244;" d="M781.973333 553.557333C872.298667 528.682667 938.666667 445.952 938.666667 347.733333c0-117.909333-95.594667-212.757333-213.504-213.504-107.2-0.682667-186.453333-41.813333-277.781334-154.752-22.08-27.306667-57.621333-39.616 3.008 56.746667 90.304 143.488 186.645333 164.544 274.773334 172.16 71.146667 6.165333 129.301333 67.946667 129.301333 139.349333a129.301333 129.301333 0 0 1-175.274667 120.853334 174.933333 174.933333 0 0 1 5.952 88.896 175.274667 175.274667 0 0 1-172.096 142.165333 175.274667 175.274667 0 0 1-165.888-231.786667 129.344 129.344 0 0 1-88.128 3.093334 129.514667 129.514667 0 0 1-89.664-123.221334c0-71.509333 59.818667-141.354667 129.493334-157.568 49.173333-11.456 103.68-20.693333 147.968-16.746666 36.714667 3.285333 39.637333-9.258667 2.56-15.786667-53.674667-9.450667-68.224-12.053333-150.549334-9.365333C180.992 152.10666700000002 85.333333 229.80266700000004 85.333333 347.733333c0 103.104 73.088 189.141333 170.282667 209.130667C271.616 687.8506669999999 383.274667 789.333333 518.613333 789.333333c136.469333 0 248.810667-103.168 263.36-235.776z m-338.688-168.362666c-11.136 0-20.138667 9.962667-20.138666 22.229333V429.653333c0 12.266667 9.002667 22.229333 20.138666 22.229334h135.936c11.114667 0 20.138667-9.962667 20.138667-22.229334v-22.229333c0-12.266667-9.002667-22.229333-20.138667-22.229333H443.306667z m-20.138666-100.437334V306.986667c0 12.288 9.002667 22.229333 20.138666 22.229333h135.936c11.114667 0 20.138667-9.941333 20.138667-22.229333v-22.229334c0-12.266667-9.024-22.208-20.138667-22.208H443.306667c-11.136 0-20.138667 9.941333-20.138667 22.208z"  horiz-adv-x="1024" />

    
    <glyph glyph-name="feedback" unicode="&#59245;" d="M352.426667 289.493333l-128.810667-229.930666 58.709333-33.066667L106.666667-16.639999999999986l189.717333 337.749333-63.786667 36.608 96.853334 22.784 0.085333-0.384-0.021333-0.021333a186.026667 186.026667 0 0 1 22.912-90.602667z m321.173333 374.933334c-96.938667 54.613333-209.664 54.229333-302.762667 9.173333l-28.032 15.829333c103.829333 56.96 233.578667 61.034667 344.106667-1.216 17.813333-10.048 34.133333-21.653333 49.450667-34.133333l-13.44-23.978667a331.392 331.392 0 0 1-49.322667 34.346667z m89.962667-497.578667a329.685333 329.685333 0 0 1 35.136 50.56c56.256 100.458667 53.973333 217.770667 4.544 312.832l15.509333 27.605333c61.44-105.472 67.498667-239.808 3.648-353.749333a355.626667 355.626667 0 0 0-34.901333-50.730667l-23.936 13.482667zM267.605333 595.157333a329.962667 329.962667 0 0 1-39.786666-56.149333c-54.144-96.661333-53.994667-208.938667-9.856-301.973333l-15.893334-28.288c-56.021333 103.850667-59.733333 233.28 2.069334 343.616a355.114667 355.114667 0 0 0 39.317333 56.384l24.149333-13.589334z m85.312-503.146666c99.648-56.128 215.957333-54.186667 310.506667-5.397334l27.52-15.552c-104.96-60.8-238.229333-66.56-351.36-2.816a354.56 354.56 0 0 0-57.365333 40.32l13.653333 24.32a327.125333 327.125333 0 0 1 57.045333-40.874666z m28.288 360.426666a151.146667 151.146667 0 0 0 206.08 58.005334c72.874667-41.066667 98.773333-133.589333 57.813334-206.656a151.125333 151.125333 0 0 0-206.058667-57.984c-72.874667 41.066667-98.773333 133.546667-57.813333 206.634666z m452.778667-356.522666l32.981333 58.88L909.994667-21.33333300000004l-323.434667 182.656-36.501333-63.957334-22.741334 97.130667 0.405334 0.064 0.021333-0.021333a184.64 184.64 0 0 1 82.730667 27.306666l223.509333-125.930666zM187.370667 671.616l-32.981334-58.88L111.36 788.885333l342.186667-193.237333 36.48 63.957333 22.741333-97.109333-0.384-0.085333h0.042667c-0.170667 0-0.298667-0.042667-0.426667-0.064v0.021333a183.509333 183.509333 0 0 1-50.112-7.658667 184.96 184.96 0 0 1-38.549333-16l-235.989334 132.906667z m483.648-189.418667L800.426667 713.109333l-58.709334 33.066667L917.333333 789.333333l-185.386666-330.090666 63.786666-36.586667-96.853333-22.805333-0.085333 0.426666 0.042666 0.042667a186.048 186.048 0 0 1-27.818666 81.877333z"  horiz-adv-x="1024" />

    
    <glyph glyph-name="hotfix" unicode="&#59246;" d="M577.962667 573.589333a181.589333 181.589333 0 0 1-66.218667-12.501333 358.357333 358.357333 0 0 0 190.848 164.053333 357.418667 357.418667 0 0 1-479.253333-351.082666H85.333333l275.413334-275.370667 131.285333 131.285333a182.613333 182.613333 0 1 1 86.037333 343.637334l-0.106666-0.021334z m0-328.853333c-20.266667 0-40.32 4.224-58.858667 12.416l116.8 116.8h-167.786667a356.565333 356.565333 0 0 0 19.008 131.562667 146.197333 146.197333 0 1 0 90.794667-260.778667h0.042667zM831.04 643.392a358.101333 358.101333 0 0 1-65.92 52.010667l-43.946667-16c-13.184-4.821333-26.026667-10.517333-38.442666-17.066667A289.322667 289.322667 0 1 0 460.8 128.06399999999996l-49.514667-49.493333a355.626667 355.626667 0 0 1 419.754667 564.8z"  horiz-adv-x="1024" />

    
    <glyph glyph-name="dm" unicode="&#59247;" d="M543.445333 138.45333300000004l3.178667 45.482667H233.088a102.464 102.464 0 0 0-102.272 102.336c0 36.330667 19.157333 69.226667 51.221333 87.893333 31.146667 17.877333 33.28 21.461333 20.266667 53.568a56.32 56.32 0 0 0-3.285333 17.6 56.896 56.896 0 0 0 56.853333 56.832s14.890667 1.066667 30.72-5.248c26.069333-10.389333 28.928-0.448 41.258667 26.368 26.005333 56.170667 82.496 92.522667 143.872 92.522667 81.834667 0 149.482667-61.888 157.376-143.978667 2.816-32.512 2.816-32.512 36.693333-40.277333a124.885333 124.885333 0 0 0 67.370667-36.949333l48.874666 11.776a170.773333 170.773333 0 0 1-107.733333 69.845333C664.405333 579.904 578.048 661.333333 471.744 661.333333c-82.282667 0-152.682667-48.853333-185.173333-118.890666a100.757333 100.757333 0 0 1-30.72 5.248 102.293333 102.293333 0 0 1-102.293334-102.272c0-11.2 2.261333-21.802667 5.610667-31.914667C115.157333 387.84 85.333333 340.821333 85.333333 286.29333299999996c0-81.621333 66.133333-147.754667 147.754667-147.754666v-0.042667h310.357333zM441.386667 303.445333l100.224-96.96 384.768 193.984-345.962667-216.618666-3.2-111.573334 51.690667 51.712 54.954666-54.954666L981.333333 429.525333z"  horiz-adv-x="1024" />

    
    <glyph glyph-name="httpdns" unicode="&#59248;" d="M176.170667 560.106667H106.666667V766.421333h206.314666v-69.504H176.170667v-136.810666zM917.184 768h-206.165333v-69.504h136.64v-136.810667h69.525333V768zM176.170667 209.55733299999997H106.666667v-206.314666h206.314666v69.525333H176.170667v136.789333z m741.013333 0h-69.525333v-136.789333H711.04v-69.525333H917.333333l-0.149333 206.314666zM537.493333 428.053333c5.056-7.274667 7.594667-17.578667 7.594667-31.018666 0-13.781333-2.688-24.533333-8.234667-32.32-5.546667-7.744-13.930667-11.712-25.173333-11.712h-15.36v-50.666667h-28.16V438.826667h46.528c10.133333 0 17.728-3.477333 22.805333-10.773334z m-19.626666-32.298666a20.053333 20.053333 0 0 1-2.858667 10.922666c-1.898667 3.008-5.376 4.437333-10.773333 4.437334h-7.893334v-30.4h6.784c5.397333 0 9.173333 1.429333 11.413334 4.266666 2.218667 2.709333 3.328 6.336 3.328 10.773334z m319.36-28.8a36.181333 36.181333 0 0 1-11.562667 15.189333c-5.226667 4.117333-14.08 8.064-26.282667 12.032-4.906667 1.578667-8.085333 3.157333-9.344 5.056a8.832 8.832 0 0 0-2.069333 5.866667 11.306667 11.306667 0 0 0 2.56 7.594666c1.557333 2.069333 4.096 3.178667 7.253333 3.178667 3.968 0 7.125333-1.429333 9.344-4.117333 2.218667-2.688 3.648-7.296 4.437334-13.461334l26.453333 2.368c-1.109333 14.08-4.757333 24.533333-10.773333 31.04-6.016 6.485333-14.890667 9.664-26.453334 9.664-9.493333 0-16.768-1.749333-22.314666-5.397333-5.376-3.626667-9.493333-8.533333-12.181334-14.72-2.709333-6.186667-4.117333-12.821333-4.117333-19.946667 0-10.602667 2.688-19.477333 7.893333-26.453333 5.248-6.954667 13.952-12.330667 26.304-16.618667 7.445333-2.538667 12.352-5.056 14.4-7.893333a16.170667 16.170667 0 0 0 0-19.306667 10.922667 10.922667 0 0 0-9.173333-4.309333c-5.397333 0-9.514667 2.688-12.373333 8.234667-1.706667 3.477333-2.986667 8.405333-3.477334 14.890666l-26.581333-2.538666c0.789333-13.781333 4.117333-25.173333 10.133333-34.048 6.016-8.853333 16.618667-13.44 31.978667-13.44 8.704 0 16 1.898667 21.845333 5.696 5.696 3.797333 10.282667 9.493333 13.44 16.768a61.226667 61.226667 0 0 1 4.778667 24.234666 65.834667 65.834667 0 0 1-4.117333 20.416z m-118.613334-3.648l-34.197333 75.52h-26.112v-136.64h26.282667v75.050666l33.877333-75.050666h26.453333V438.826667h-26.282666v-75.52z m-77.418666 34.197333c1.429333-8.405333 2.218667-17.109333 2.218666-26.453333 0-14.549333-1.109333-25.962667-3.328-33.877334-2.218667-8.064-5.226667-14.72-9.173333-20.266666-3.968-5.376-8.085333-9.024-12.672-10.922667-6.186667-2.538667-11.733333-3.797333-16.64-3.797333H560V438.826667H601.6c8.234667 0 14.869333-1.749333 19.797333-5.077334 4.906667-3.306667 9.173333-8.234667 12.501334-14.4 3.477333-6.186667 5.845333-13.44 7.274666-21.845333z m-25.813334-27.242667c0 14.421333-1.578667 24.384-4.736 29.781334-3.178667 5.376-8.405333 8.064-15.530666 8.064h-6.954667v-74.581334h6.826667c5.845333 0 9.962667 0.96 12.48 3.008 2.56 1.92 4.437333 5.397333 5.866666 10.304 1.28 4.586667 2.048 12.501333 2.048 23.424zM279.253333 405.12h28.501334v-102.912h28.010666v102.912h28.501334v33.706667H279.253333v-33.706667z m91.349334 0h28.501333v-102.912h28.032v102.912h28.501333v33.706667h-85.034666v-33.706667z m-131.733334-13.930667H208.32V438.826667H180.266667v-136.64h28.032v55.253333h30.549333v-55.253333h28.181333V438.826667h-28.16v-47.658667z m37.845334 106.88c25.344 45.589333 61.269333 82.496 103.872 107.669334-9.664-29.781333-20.266667-70.144-28.501334-118.442667h70.144c6.954667 46.869333 17.578667 98.176 33.237334 148.522667l-3.477334-0.32c17.28 3.797333 34.986667 6.016 53.354667 6.016 18.538667 0 36.416-2.538667 53.994667-6.656 15.36-49.557333 25.962667-101.482667 32.938666-147.562667h69.973334a839.125333 839.125333 0 0 1-28.010667 115.904c41.173333-25.344 75.669333-61.909333 100.053333-106.56 1.28-2.858667 2.56-5.077333 3.797334-9.344h87.722666C774.037333 628.181333 650.069333 727.466667 505.344 727.466667c-144.704 0-268.693333-99.285333-320.469333-240.192h88.042666c0.96 3.477333 2.218667 6.656 3.797334 10.773333z m360.213333-330.453333a874.453333 874.453333 0 0 1 17.408 69.504h-68.864c-10.773333-55.722667-23.125333-92.928-26.773333-103.381333-17.258667-3.968-35.136-6.016-53.504-6.016-16.64 0-32.768 2.218667-48.618667 5.546666-1.109333 3.157333-15.04 41.002667-27.392 103.850667h-68.693333c5.056-23.893333 10.901333-48.128 18.666666-72.981333-30.72 18.346667-57.472 43.392-79.488 72.981333h-95.146666c59.690667-116.693333 171.946667-195.370667 300.672-195.370667 128.874667 0 240.981333 78.848 300.672 195.370667h-95.317334c-20.586667-27.690667-45.290667-51.456-73.621333-69.504z"  horiz-adv-x="1024" />

    
    <glyph glyph-name="iot" unicode="&#59249;" d="M485.248 525.568v-58.88l-168.256-92.544-168.256 92.522667v193.493333l168.256 96.768 168.256-96.768v-50.474667h42.069333V685.44l-210.346666 121.984L106.666667 685.418667v-243.989334l210.325333-121.984 210.325333 121.984v84.138667zM695.573333 807.402667l-210.346666-121.984v-243.989334l67.328-37.845333 21.034666 37.845333-46.293333 25.237334v193.493333l168.277333 96.768 168.256-96.768v-193.493333l-168.256-92.522667-42.069333 25.237333-25.237333-42.069333 67.306666-37.866667 210.304 121.984V685.44zM506.282667 483.498667l-67.306667-42.069334 25.237333-37.845333 42.069334 25.237333 164.053333-96.746666v-189.290667l-164.053333-96.746667-164.053334 96.746667v189.290667l42.069334 25.237333-21.034667 42.069333-67.306667-37.866666V117.54666699999996l210.325334-121.984 210.304 121.984V361.51466700000003zM363.264 348.88533299999995l-50.474667 92.544 117.76 67.306667 50.496-92.544-37.866666-25.237333-29.44 54.698666-37.866667-21.034666L405.333333 369.91999999999996zM590.4 496.128h-105.173333v46.272h63.104v42.048h-63.082667v46.293333h105.173333zM615.637333 294.20799999999997l-113.557333 67.306667 50.474667 92.544 42.048-21.034667-29.44-54.677333 33.664-21.034667 33.642666 50.474667 37.866667-21.034667zM316.992 500.330667c-33.664 0-63.104 29.44-63.104 63.082666 0 33.664 29.44 63.104 63.104 63.104 33.642667 0 63.082667-29.44 63.082667-63.104 0-33.642667-29.44-63.082667-63.082667-63.082666z m0 88.32c-12.629333 0-25.237333-12.608-25.237333-25.237334 0-12.608 12.608-25.237333 25.237333-25.237333 12.608 0 25.237333 12.629333 25.237333 25.237333 0 12.629333-8.426667 25.237333-25.237333 25.237334zM695.573333 500.330667c-33.664 0-63.104 29.44-63.104 63.082666 0 33.664 29.44 63.104 63.104 63.104 33.642667 0 63.082667-29.44 63.082667-63.104 0-33.642667-29.44-63.082667-63.082667-63.082666z m0 88.32c-12.629333 0-25.237333-12.608-25.237333-25.237334 0-12.608 12.608-25.237333 25.237333-25.237333 12.608 0 25.237333 12.629333 25.237334 25.237333 0 12.629333-12.629333 25.237333-25.237334 25.237334zM510.485333 180.62933299999997c-33.664 0-63.104 29.44-63.104 63.104 0 33.642667 29.44 63.104 63.104 63.104 33.642667 0 63.104-29.44 63.104-63.104 0-33.642667-29.44-63.104-63.104-63.104z m0 88.341334c-12.629333 0-25.237333-12.608-25.237333-25.237334 0-12.608 12.608-25.237333 25.237333-25.237333 12.608 0 25.237333 12.629333 25.237334 25.237333 0 16.832-8.405333 25.237333-25.237334 25.237334z"  horiz-adv-x="1024" />

    
    <glyph glyph-name="mas" unicode="&#59251;" d="M85.333333 561.472l73.216 0.085333 140.224-389.930666 137.088 389.845333h75.093334l114.133333-391.317333 156.032 358.634666-108.714667 49.173334L902.741333 704 960 448.853333l-77.589333 33.408-37.482667 16.128-186.730667-439.04-73.941333 0.213334-119.893333 365.738666-129.173334-365.717333H259.626667z"  horiz-adv-x="1024" />

    
    <glyph glyph-name="mobiletesting" unicode="&#59252;" d="M518.293333 723.754667c-9.642667-9.642667-9.962667-24.576-1.792-35.072L117.696 289.91999999999996a406.848 406.848 0 0 0-10.602667 112.618667l161.514667 161.514666a42.666667 42.666667 0 0 1 51.584 6.677334 42.666667 42.666667 0 0 1 6.677333 51.584l166.613334 166.613333c37.76 1.706667 75.648-1.813333 112.64-10.602667l-52.757334-52.736c-10.496 8.149333-25.429333 7.850667-35.072-1.813333zM354.090667 32.42666699999995a43.349333 43.349333 0 0 1 6.762666 52.373333L862.912 586.88a403.712 403.712 0 0 0 37.504-85.717333l-82.304-82.325334a60.565333 60.565333 0 0 1-80.298667-4.586666 60.522667 60.522667 0 0 1-4.586666-80.277334L394.88-4.416000000000054a391.573333 391.573333 0 0 0-62.592 25.088c7.978667 1.664 15.637333 5.546667 21.824 11.733333z m469.632 295.893333a60.544 60.544 0 0 1 4.245333 80.725333l76.437333 76.437334c9.301333-36.16 13.653333-73.258667 12.842667-110.378667L655.104 112.96000000000004c-10.410667 7.488-24.832 7.04-34.218667-2.346667-9.344-9.386667-9.834667-23.765333-2.346666-34.218666l-97.664-97.664a407.338667 407.338667 0 0 0-110.378667 12.842666l332.501333 332.522667a60.544 60.544 0 0 1 80.725334 4.224z m-564.053334 302.933333a42.666667 42.666667 0 0 1-1.792-58.346666l-149.802666-149.76a404.138667 404.138667 0 0 0 116.949333 247.829333 404.053333 404.053333 0 0 0 247.850667 116.928l-154.88-154.88a42.666667 42.666667 0 0 1-58.325334-1.770667z m-10.176-299.52a42.112 42.112 0 0 1-3.072-56l-88.810666-88.789333a403.349333 403.349333 0 0 0-36.053334 87.168l405.952 405.930667a26.666667 26.666667 0 0 1 34.496 34.517333l59.861334 59.882667c16.021333-4.48 31.786667-10.090667 47.210666-16.597334-2.666667-1.706667-5.226667-3.648-7.552-5.973333A43.434667 43.434667 0 0 1 661.333333 690.624l-355.84-355.84a42.112 42.112 0 0 1-56-3.072z m409.173334-258.901333c8.021333 8 9.749333 19.754667 5.461333 29.546667L916.266667 354.496c-6.805333-93.781333-45.717333-185.642667-117.418667-257.322667-71.68-71.701333-163.562667-110.613333-257.322667-117.44l87.637334 87.637334c9.770667-4.266667 21.525333-2.56 29.525333 5.461333z m-140.373334 424.042667a70.4 70.4 0 0 1-3.477333-95.594667L218.24 104.68266700000004a408.256 408.256 0 0 0-53.333333 69.909333l91.754666 91.733333a42.154667 42.154667 0 0 1 58.261334 58.261334l357.909333 357.909333a43.285333 43.285333 0 0 1 62.826667 39.466667 404.096 404.096 0 0 0 55.68-44.202667l-177.408-177.408a70.4 70.4 0 0 1-95.594667-3.477333z m105.194667-6.549334l177.856 177.834667a405.205333 405.205333 0 0 0 54.272-68.970667L352 95.57333300000005a43.349333 43.349333 0 0 1-59.370667-1.706666 43.264 43.264 0 0 1-10.538666-43.733334 400.981333 400.981333 0 0 0-54.272 44.501334L524.864 391.68a70.336 70.336 0 0 1 93.269333 5.354667 70.336 70.336 0 0 1 5.354667 93.290666z"  horiz-adv-x="1024" />

    
    <glyph glyph-name="pts" unicode="&#59257;" d="M806.101333 725.333333c-74.56 0-132.544-60.757333-132.544-132.565333a131.456 131.456 0 0 1 69.034667-115.968l-124.266667-193.322667-118.762666 80.085334-88.362667-132.565334-149.12 102.186667L85.333333 87.42399999999998v-63.530667h27.626667l162.922667 229.205334 143.594666-102.186667 93.909334 132.565333 121.514666-80.085333 168.448 259.584h2.773334c74.538667 0 132.544 60.757333 132.544 132.565333C938.666667 667.349333 880.682667 725.333333 806.101333 725.333333z"  horiz-adv-x="1024" />

    
    </font>
</defs>
</svg>
