<?xml version="1.0" standalone="no"?>
<!DOCTYPE svg PUBLIC "-//W3C//DTD SVG 1.1//EN" "http://www.w3.org/Graphics/SVG/1.1/DTD/svg11.dtd" >
<svg xmlns="http://www.w3.org/2000/svg">
<metadata>
Created by FontForge 20120731 at Tue Jan  5 10:02:59 2016
 By Ads
</metadata>
<defs>
<font id="iconfont" horiz-adv-x="1024" >
  <font-face 
    font-family="iconfont"
    font-weight="500"
    font-stretch="normal"
    units-per-em="1024"
    panose-1="2 0 6 3 0 0 0 0 0 0"
    ascent="896"
    descent="-128"
    x-height="792"
    bbox="0 -224 3080 896"
    underline-thickness="50"
    underline-position="-100"
    unicode-range="U+0078-E628"
  />
<missing-glyph horiz-adv-x="374" 
d="M34 0v682h272v-682h-272zM68 34h204v614h-204v-614z" />
    <glyph glyph-name=".notdef" horiz-adv-x="374" 
d="M34 0v682h272v-682h-272zM68 34h204v614h-204v-614z" />
    <glyph glyph-name=".null" horiz-adv-x="0" 
 />
    <glyph glyph-name="nonmarkingreturn" horiz-adv-x="341" 
 />
    <glyph glyph-name="x" unicode="x" horiz-adv-x="1001" 
d="M281 543q-27 -1 -53 -1h-83q-18 0 -36.5 -6t-32.5 -18.5t-23 -32t-9 -45.5v-76h912v41q0 16 -0.5 30t-0.5 18q0 13 -5 29t-17 29.5t-31.5 22.5t-49.5 9h-133v-97h-438v97zM955 310v-52q0 -23 0.5 -52t0.5 -58t-10.5 -47.5t-26 -30t-33 -16t-31.5 -4.5q-14 -1 -29.5 -0.5
t-29.5 0.5h-32l-45 128h-439l-44 -128h-29h-34q-20 0 -45 1q-25 0 -41 9.5t-25.5 23t-13.5 29.5t-4 30v167h911zM163 247q-12 0 -21 -8.5t-9 -21.5t9 -21.5t21 -8.5q13 0 22 8.5t9 21.5t-9 21.5t-22 8.5zM316 123q-8 -26 -14 -48q-5 -19 -10.5 -37t-7.5 -25t-3 -15t1 -14.5
t9.5 -10.5t21.5 -4h37h67h81h80h64h36q23 0 34 12t2 38q-5 13 -9.5 30.5t-9.5 34.5q-5 19 -11 39h-368zM336 498v228q0 11 2.5 23t10 21.5t20.5 15.5t34 6h188q31 0 51.5 -14.5t20.5 -52.5v-227h-327z" />
    <glyph glyph-name="uniE600" unicode="&#xe600;" 
d="M832 362h-70h-93h-308h-99h-70q-11 0 -19.5 -8t-8.5 -20v-454q0 -11 8.5 -19.5t19.5 -8.5h640q11 0 19.5 8.5t8.5 19.5v454q0 12 -8.5 20t-19.5 8zM361 497v0q0 63 45.5 108t108.5 45q31 0 59.5 -12.5t49 -33t33 -48.5t12.5 -59v0v-135h93v135q0 69 -33.5 126.5t-91 91
t-125.5 33.5t-125.5 -33.5t-91 -91t-33.5 -126.5v-135h99v135z" />
    <glyph glyph-name="uniE601" unicode="&#xe601;" 
d="M529 800q29 0 57.5 -6.5t53.5 -17.5t44.5 -25t30.5 -28q26 -32 38 -70.5t17 -73.5q5 -40 5 -81q7 -5 11 -13q4 -7 6.5 -18t0.5 -27q-2 -21 -8.5 -33.5t-14.5 -19.5q-9 -8 -19 -11q-5 -17 -10 -32q-5 -13 -11.5 -25.5t-14.5 -19.5q-19 -15 -31 -25.5t-16 -35.5
q-3 -15 -2 -30.5t8.5 -31t23 -29.5t43.5 -25q25 -10 54.5 -18t57.5 -18.5t49.5 -26t30.5 -42.5q5 -16 7.5 -39.5t2.5 -47.5t-3.5 -45t-10.5 -32q-5 -7 -28.5 -14t-58 -13.5t-77 -11.5t-85.5 -8.5t-82.5 -5.5t-68.5 -2t-67.5 2t-79.5 5.5t-81.5 8t-73.5 9.5t-56 10t-29 10
q-10 8 -15.5 49t4.5 106q5 37 29.5 56.5t57 31t67.5 20.5t62 26q21 13 32 25t16 24t5 25t-1 29q-2 23 -16 36.5t-31 27.5q-8 7 -14 19.5t-11 25.5q-5 15 -10 32q-7 2 -14 7q-6 5 -13 14t-12 26q-6 17 -4.5 31t5.5 24q4 11 13 21q-1 38 4 76q4 32 14.5 69t31.5 66
q19 28 42.5 45.5t48 27.5t49 13.5t47.5 3.5z" />
    <glyph glyph-name="uniE602" unicode="&#xe602;" 
d="M354 812h-354v-354h354v354zM276 536h-197v197h197v-197zM236 576h-118v118h118v-118zM512 812v-79h-79v79h79zM512 576v-79h-79v157h79v79h79v-157h-79zM79 379v-79h-79v79h79zM512 -212v79h79v-79h-79zM945 300h79v-79h-236v79h78v79h79v-79zM512 182v-79h-79v79h79z
M945 -212v79h79v-79h-79zM945 103h79v-79v-78h-79v-79h-39v-79h-79v79h39v79h-39v-79h-79v-79h-78v158h78v78h79v79h-79v-79h-78v-78h-158v-79h-79v157h79v79h158v79h275v-79zM788 379v-79h-79v-79h-118v79h-79v-79h-197v79h-79v-79h-157v79h79v79h354v118h79v-118h197z
M0 -212h354v354h-354v-354zM79 64h197v-197h-197v197zM118 24h118v-118h-118v118zM670 812v-354h354v354h-354zM945 536h-197v197h197v-197zM906 576h-118v118h118v-118z" />
    <glyph glyph-name="uniE603" unicode="&#xe603;" 
d="M512 800q-104 0 -199 -40.5t-163.5 -109t-109 -163.5t-40.5 -199q0 -60 13.5 -117.5t38.5 -107.5t60 -94.5t79.5 -79.5t95 -60.5t108 -39t117.5 -13.5q104 0 199 40.5t163.5 109t109 163.5t40.5 199q0 212 -150 362t-362 150zM464 33q-66 0 -126 19.5t-99 59t-39 89.5
q0 83 94 177q59 59 120 83t87 -3q23 -22 7 -73q-4 -11 6 -10q9 1 9 3q32 13 60 18t49 0t31 -19q16 -23 0 -63q-3 -5 -1 -8.5t4 -4.5t8 -3q31 -10 53.5 -31.5t22.5 -54.5q0 -65 -82 -122t-204 -57zM701 365q4 9 1.5 19.5t-9.5 19t-17.5 11.5t-20.5 1q-8 -2 -15.5 2.5t-9 13
t3 16t12.5 8.5q47 10 78 -24.5t17 -79.5q-2 -6 -6 -9.5t-9.5 -4.5t-10.5 0q-9 3 -12.5 10.5t-1.5 16.5v0zM822 325q-3 -9 -11.5 -13.5t-18.5 -1.5t-14.5 12t-1.5 18q10 29 3.5 60.5t-28 55.5t-52 33.5t-60.5 3.5q-10 -2 -18.5 3.5t-10.5 15t3.5 18t15.5 10.5q43 9 85.5 -4
t72.5 -47q21 -23 32 -51t11.5 -56t-8.5 -57zM641 222q-6 51 -64.5 82t-137 23t-130.5 -49.5t-46.5 -93t64 -82.5t137 -23t130.5 49.5t47 93.5zM531 165q-16 -36 -56 -52.5t-79 -4.5q-37 12 -51.5 44.5t2.5 66.5q16 33 53 49t74 6q39 -10 56 -41.5t1 -67.5zM425 202
q-13 5 -26.5 0.5t-21 -16t-4.5 -24t15 -17.5q6 -3 13 -3.5t13.5 2t12.5 6.5t9 10q5 8 5 16.5t-4 15.5t-12 10zM464 219q-11 4 -17.5 -7t4.5 -16q12 -4 19 7q2 5 0.5 9.5t-6.5 6.5z" />
    <glyph glyph-name="uniE604" unicode="&#xe604;" 
d="M528 765q-73 0 -141.5 -23t-123.5 -64.5t-96.5 -96.5t-64 -123.5t-22.5 -141.5q0 -91 35.5 -174t95.5 -143t143 -95.5t174 -35.5t174 35.5t143 95.5t95.5 143t35.5 174q0 52 -11.5 102.5t-33.5 95t-53 83t-70 69.5t-83 53t-94.5 34t-102.5 12zM750 292q-1 -7 -4 -11
q-5 -5 -11 -5h-417q-6 0 -10.5 4.5t-4.5 11.5v52q0 6 4.5 10.5t10.5 4.5h417q6 0 10.5 -4.5t4.5 -10.5v-52z" />
    <glyph glyph-name="uniE605" unicode="&#xe605;" 
d="M875 573l-246 -247l244 -244q22 -23 22 -54.5t-22.5 -54.5t-54.5 -23t-54 23l-244 244l-243 -244q-23 -23 -55 -23t-54.5 23t-22.5 54.5t23 54.5l243 244l-246 247q-22 23 -22 55t22.5 54.5t54.5 22.5t54 -23l246 -246l246 246q9 9 20 14.5t23 7.5t23.5 0t22.5 -7.5
t20 -14.5q23 -22 23 -54t-23 -55z" />
    <glyph glyph-name="uniE606" unicode="&#xe606;" 
d="M512 754q-172 0 -301 -114q-124 -110 -148 -273q-5 -34 -5 -67q0 -74 23 -143t65 -125t98 -98t125 -65t143 -23q92 0 176 36t145 97t97 145t36 176t-36 176t-97 145t-145 97t-176 36zM512 -56q-35 0 -59 24t-24 59q0 17 6.5 32.5t17.5 26.5t26.5 17.5t32.5 6.5
q35 0 59 -24t24 -59q0 -17 -6.5 -32.5t-17.5 -26.5t-26.5 -17.5t-32.5 -6.5zM613 539v-1v0l-36 -333q-1 -1 -1 -2v-2q-1 -9 -5 -17.5t-10 -15t-13.5 -11.5t-16.5 -8t-19 -3q-16 0 -30 7.5t-23 20t-11 27.5v2q0 1 -1 2l-35 332q-1 1 -1 2v1v9q0 20 8 39t21.5 32.5t32 21.5
t39.5 8q16 0 31.5 -5.5t28 -14.5t22 -21.5t14.5 -28t5 -31.5v-10z" />
    <glyph glyph-name="uniE607" unicode="&#xe607;" 
d="M925 583h-826q-6 0 -10.5 -4.5t-4.5 -10.5v-459q0 -4 2 -7.5t5.5 -5.5t7.5 -2h367v-61h-131q-6 0 -6 -7v-3q0 -6 6 -6h354q6 0 6 6v3q0 7 -6 7h-131v61h367q15 0 15 15v459q0 6 -4.5 10.5t-10.5 4.5zM543 32h-62v62h62v-62zM925 121q0 -6 -3 -9t-10 -3h-800q-13 0 -13 12
v49h826v-49zM925 176h-826v379q0 7 3 9.5t10 2.5h800q7 0 10 -2.5t3 -9.5v-379z" />
    <glyph glyph-name="uniE608" unicode="&#xe608;" 
d="M785 319q0 -10 -7.5 -18t-18 -8t-18 6.5t-7.5 16.5v27q0 9 7.5 15.5t18 6.5t18 -7.5t7.5 -16.5v-22zM488 323q2 -3 0.5 -7.5t-5.5 -7.5q-10 -8 -16 -2l-78 101q-2 3 -3 9t4 11q6 4 11 1.5t7 -5.5zM489 299q-5 -2 -12 -0.5t-9 6t-1 9.5t6 7l151 64q15 6 20 -6q2 -5 1 -10
t-6 -7zM736 323q0 -51 -19.5 -96t-53 -78t-78.5 -52.5t-95.5 -19.5t-95.5 19.5t-78.5 52.5t-53 78t-19.5 96t19.5 96t53 78t78.5 52.5t95.5 19.5t95.5 -19.5t78.5 -52.5t53 -78t19.5 -96zM489.5 499q-36.5 0 -68.5 -13.5t-56 -37.5t-38 -56.5t-14 -68.5q0 -37 14 -69t38 -56
t56 -37.5t68.5 -13.5t68.5 13.5t56 37.5t38 56t14 69q0 36 -14 68.5t-38 56.5t-56 37.5t-68.5 13.5zM384 606v64v76q0 13 6.5 27.5t30.5 26.5q12 6 30.5 9t38 3t37.5 -3t29 -9q23 -11 30 -25.5t7 -29.5v-139q-13 6 -29 11q-14 5 -33.5 9t-42 4t-41.5 -4t-33 -9
q-16 -5 -30 -11zM374 45v-144q0 -12 6 -25t30 -25q12 -6 30.5 -9t38.5 -3t38 3t29 9q23 11 29.5 24t6.5 28v142q-12 -8 -29 -12q-14 -5 -33.5 -8.5t-42 -3.5t-41 3.5t-32.5 8.5q-16 4 -30 12z" />
    <glyph glyph-name="uniE609" unicode="&#xe609;" 
d="M176 380l298 -299h1q15 -15 36 -15q4 0 8 0.5t7.5 1.5t7 3t6.5 4t6 5l5 5l287 287q22 15 22 42q0 22 -15 37t-36 15h-161v195q0 36 -25 61.5t-62 25.5h-100q-36 0 -61.5 -25.5t-25.5 -61.5v-195h-160q-21 0 -36 -15t-15 -37q0 -9 3.5 -18t9.5 -16zM959 199q0 14 -7 26.5
t-19 19.5t-26.5 7t-27 -7t-19.5 -19.5t-7 -26.5v-211h-682v211q0 22 -16 37.5t-38 15.5q-14 0 -26.5 -7t-19.5 -19.5t-7 -26.5v-223v-70v-41q0 -4 1.5 -6.5t4.5 -4t6 -1.5h871q5 0 8.5 3.5t3.5 8.5v41v293z" />
    <glyph glyph-name="uniE60A" unicode="&#xe60a;" 
d="M512 746q-91 0 -173.5 -35.5t-142 -95t-95 -142t-35.5 -173.5q0 -61 16 -118.5t45 -106.5t70 -90t90 -70t106.5 -45t118.5 -16q91 0 173.5 35.5t142 95t95 142t35.5 173.5t-35.5 173.5t-95 142t-142 95t-173.5 35.5zM727 374l-256 -259v-1q-2 -2 -6 -4q-1 0 -1.5 -0.5
t-1.5 -1t-2 -1.5q-6 -2 -12 -2t-12 2l-2 2q-1 0 -1 1q-6 3 -7 4v1h-1l-126 129q-6 6 -8 14.5t0.5 16.5t8.5 15q9 9 22.5 8.5t22.5 -9.5l103 -106l234 236q9 9 22.5 9t22.5 -9t9.5 -22.5t-9.5 -22.5z" />
    <glyph glyph-name="uniE60B" unicode="&#xe60b;" 
d="M590.5 536q-7.5 8 -18.5 13q-3 1 -7 2.5t-8 2t-9 0.5q-12 0 -23 -5t-18 -13q-4 -4 -7 -9t-5 -11q-2 -4 -3 -8v-8q-1 -4 -1 -8q0 -14 4 -25.5t12 -20.5q4 -4 8.5 -7t9.5 -6q11 -4 23.5 -4t23.5 4.5t18 12.5q4 5 7 9.5t5 10.5q5 12 5 26q0 6 -1.5 12.5t-3.5 11.5
q-4 12 -11.5 20zM709 748h-394q-68 0 -125.5 -34t-91.5 -91.5t-34 -125.5v-143v-215l156 107h489q68 0 126 33.5t91.5 91.5t33.5 126t-33.5 125.5t-91.5 91.5t-126 34zM406 389h-49v85h-79v-85h-49v203h49v-77h79v77h49v-203zM650.5 448q-8.5 -20 -23 -34.5t-34.5 -21.5
q-11 -4 -22 -6t-23 -2q-23 0 -43.5 7.5t-35 22t-23 34.5t-8.5 44q0 8 1 15.5t3 14.5l4 14q9 19 24 33q2 3 5.5 5.5t6.5 4.5l8 4l6 4q4 2 8 3q11 4 22 6t22 2q24 0 45 -8q4 -1 7.5 -3t7.5 -4t7 -4t6.5 -4.5t6.5 -5.5q7 -7 13 -15.5t10 -17.5q8 -20 8 -44t-8.5 -44zM827 550
h-57v-161h-49v161h-57v42h163v-42z" />
    <glyph glyph-name="uniE60C" unicode="&#xe60c;" 
d="M681 -107l-439 439q-21 22 -21 52t21 52l439 439q22 21 52 21t52 -21q7 -7 11.5 -16t7 -18t2.5 -18.5t-2.5 -18.5t-7 -17.5t-11.5 -15.5l-388 -387l388 -387q21 -22 21 -52t-21 -52q-7 -7 -15.5 -11.5t-18 -7t-18.5 -2.5q-14 0 -27.5 5.5t-24.5 15.5z" />
    <glyph glyph-name="uniE60D" unicode="&#xe60d;" horiz-adv-x="3082" 
d="M100 614q20 -17 39 -32t29.5 -23t21.5 -17.5t23 -20t27 -25.5q29 -28 30.5 -74.5t-16.5 -100.5q-11 -28 -17.5 -43.5t-13.5 -29t-30.5 -63t-53.5 -111.5l-138 85q42 34 83 75q26 28 42.5 45.5t35 41.5t24.5 39q22 43 -6 75q-6 8 -13 14.5t-17 12.5l-105 64zM453 725
q324 85 453 8q61 -36 78 -98q5 -26 9 -53.5t6 -57.5q11 -150 -8 -298q-3 -44 -20.5 -77.5t-45 -52t-57 -28.5t-63.5 -13q-74 -7 -161 19l14 69l76 -17q86 -9 112 53q13 26 13 61v352q4 194 -354 64l53 -12q-11 -23 -43 -68h303v-62h-172v-78h172v-61h-172v-129l15 6
q10 4 16 7l14 7q8 4 15 8.5t13 9.5l-15 55l80 22l65 -162l-100 -40l-15 65q-36 -26 -108 -55q-36 -15 -83.5 -21t-108.5 -5h-18q-8 0 -15.5 1t-14.5 3t-13 4t-11.5 5.5t-10 7t-8.5 8.5q-27 32 -37 69q-8 43 3 98l1 2h121q0 -20 -4 -44q-3 -29 7 -46q7 -9 17.5 -13.5
t25.5 -7.5t18 -4h6v149h-172v61h172v78h-42l-53 -53l-22 -25l-55 48q43 43 100 144q-10 -4 -19 -8t-18.5 -7.5t-21.5 -7.5q-2 -3 -5.5 -7.5t-6.5 -8t-6.5 -8t-6 -8t-6 -7.5t-7 -7.5t-7 -7.5t-7.5 -7l-6 -8l-8 -6h-2l-6 3l-9 5l-12 6q-7 3 -14 7l-42 25q53 46 102 150
q21 43 37 94l127 -35l-9 -16q-1 -4 -3 -7.5t-4 -7.5l-5 -9q-2 -5 -4.5 -9.5t-6.5 -10.5zM1655 510v-81h275v-68h-275v-190h374v-80h-890v80h355v190h-247v68h247v81h-215v-20h-140v249h140v-30q14 2 50.5 6t80.5 9t84 11v69h157v-55q7 1 26 3t27 2.5t24 2t24 2t21 1.5t21 1
h18q10 0 17 -0.5t14 -2.5q49 -2 87 -7.5t65 -15.5q30 -10 45.5 -31t17.5 -54q0 -51 -63 -114q-19 -19 -62 -51l-38 39v-14h-240zM1279 573h564v3q33 19 49 38q37 39 -22 70q-18 9 -61.5 11t-99 -2.5t-118 -11.5t-122.5 -17t-109.5 -19t-80.5 -17v-55zM3077 614
q6 -116 0 -309v-24q-1 -42 -2 -65.5t-9 -62.5t-22.5 -58.5t-44 -32t-71.5 -4.5q-54 5 -111 32q-26 11 -39 20l6 66q36 -20 65 -24q17 -4 32 0.5t26.5 22.5t14.5 49q5 84 5 357q-7 -9 -21.5 -29.5t-35 -49.5t-37.5 -53q20 -16 29 -23.5t22.5 -20t21.5 -21.5t13 -18l-112 -93
l-14 23q-5 5 -10 12t-9 12.5t-11 17t-11 16.5q-43 -48 -96 -90.5t-109 -72.5l-49 69q14 7 29.5 16.5t34.5 22.5q26 19 41.5 32t41 41t44.5 58q-21 32 -82 84q-8 -8 -23.5 -26t-20.5 -23q43 -44 56 -69l-86 -85l-16 21l-33 52q-19 -15 -44 -37t-33 -29q-18 -16 -33 -26
l-40 40v-241h-156v674h156v-60q5 2 17 6q297 108 472 92q64 -7 111.5 -25.5t72.5 -38t41.5 -46t21 -42.5t7.5 -37zM2927 606q0 9 -1.5 17.5t-2.5 14.5t-1 10q0 11 -2 24t-6 22q-29 51 -117 50q-94 -7 -227 -44.5t-236 -84.5v-254q29 18 51.5 40.5t43.5 53.5q-49 72 -85 91
l43 55q21 -13 30 -20q11 -10 67 -48q32 61 46 97l17 43l120 -59q-2 -5 -8.5 -18.5t-9.5 -22.5q9 -6 23 -15.5t33 -21.5t33 -22q40 74 60 170zM175 644q-36 0 -63 24t-27 57q0 35 26.5 57t63.5 22q39 0 64 -22t25 -57q0 -34 -25.5 -57.5t-63.5 -23.5zM1826 188q-38 0 -64 23
t-26 55q0 24 12 42.5t32.5 28.5t45.5 10q37 0 63 -22.5t26 -58.5q0 -15 -7 -29.5t-19 -25t-28.5 -17t-34.5 -6.5z" />
    <glyph glyph-name="uniE60E" unicode="&#xe60e;" 
d="M512 812q-139 0 -257 -68.5t-186.5 -186.5t-68.5 -257t68.5 -257t186.5 -186.5t257 -68.5t257 68.5t186.5 186.5t68.5 257t-68.5 257t-186.5 186.5t-257 68.5zM749 383l-256 -256q-19 -19 -45 -19q-13 0 -24.5 5t-20.5 14l-128 128q-6 6 -10 13t-6.5 15t-2.5 17
q0 17 8.5 32t23.5 23.5t32 8.5q26 0 45 -19l83 -82l211 210q19 19 45 19q17 0 32 -8.5t23.5 -23.5t8.5 -32q0 -26 -19 -45z" />
    <glyph glyph-name="uniE60F" unicode="&#xe60f;" 
d="M904 278h-784q-12 0 -21 9t-9 21.5t9 21.5t21 9h784q12 0 21 -9t9 -21q0 -5 -1.5 -10t-4.5 -8.5t-6.5 -6.5t-8 -4.5t-9.5 -1.5zM813 -83h-166q-5 0 -9.5 1.5t-8 4t-6.5 6.5t-4.5 8.5t-1.5 9.5q0 3 1 6.5t2.5 6.5t3.5 5.5t4.5 4.5t5.5 3.5t6.5 2.5t6.5 1h166q13 0 22 9
t9 21v151q0 4 1 8t3 7t4.5 6t6 5t7.5 3t8 1q12 0 21 -9t9 -21v-151q0 -18 -7.5 -35t-19.5 -29t-28.5 -19t-35.5 -7zM382 -83h-171q-38 0 -64.5 26.5t-26.5 63.5v151q0 8 4 15t11 11t15 4q13 0 21.5 -9t8.5 -21v-151q0 -12 9 -21t22 -9h171q3 0 6 -0.5t6 -1.5t5.5 -3t4.5 -4
t3.5 -4.5t2.5 -5t1.5 -5.5t0.5 -6q0 -6 -2 -11.5t-6 -10t-10 -6.5t-12 -2zM150.5 429q-12.5 0 -21.5 9t-9 21v151q0 24 12 45t33 33t46 12h171q13 0 21.5 -8.5t8.5 -21t-8.5 -21.5t-21.5 -9h-171q-13 0 -22 -9t-9 -21v-151q0 -12 -8.5 -21t-21 -9zM874 429q-13 0 -21.5 9
t-8.5 21v151q0 12 -9 21t-22 9h-166q-12 0 -21 9t-9 21q0 8 4 15t11 11t15 4h166q19 0 35.5 -7t28.5 -19t19.5 -29t7.5 -35v-151q0 -12 -9 -21t-21 -9z" />
    <glyph glyph-name="uniE610" unicode="&#xe610;" 
d="M951 757h-878q-30 0 -51.5 -21.5t-21.5 -51.5v-512v-74q0 -30 21.5 -51.5t51.5 -21.5h366v-110h-183q-15 0 -25.5 -10.5t-10.5 -25.5v-37h585v37q0 10 -5 18.5t-13.5 13t-18.5 4.5h-182v110h365q31 0 52.5 21.5t21.5 51.5v74v512q0 30 -21.5 51.5t-52.5 21.5zM476 98
q0 10 5 18.5t13 13.5t18 5t18.5 -5t13.5 -13.5t5 -18.5q0 -15 -11 -25.5t-26 -10.5t-25.5 10.5t-10.5 25.5zM73 172v512h878v-512h-878z" />
    <glyph glyph-name="uniE611" unicode="&#xe611;" 
d="M757 774h-454h-3t-9.5 -1.5t-13 -3.5t-14 -7t-12.5 -12t-9 -18t-4 -25v-814q1 -1 0 -7t2 -16.5t8.5 -20t19 -16.5t32.5 -7h460h2q2 0 6.5 0.5t8.5 1.5t9.5 3t10.5 5t10 8t8.5 11.5t6 15.5t2.5 19v817v7q-1 7 -4 16.5t-9.5 19.5t-20.5 17t-33 7zM465 741h130v-32h-130v32z
M416 741q3 0 6 -1t5.5 -3t3.5 -5.5t1 -6.5q0 -7 -4.5 -11.5t-11.5 -4.5q-3 0 -6 1t-5.5 3.5t-3.5 5.5t-1 6q0 7 4.5 11.5t11.5 4.5zM530 -109q-13 0 -22.5 9.5t-9.5 23t9.5 23.5t22.5 10q9 0 16.5 -4.5t12 -12t4.5 -16.5q0 -23 -22 -31q-6 -2 -11 -2zM760 22h-459v654h459
v-654zM760 22z" />
    <glyph glyph-name="uniE612" unicode="&#xe612;" 
d="M294 -212q-30 0 -51.5 21.5t-21.5 51.5t21 52l387 387l-387 387q-21 22 -21 52t21.5 51.5t51.5 21.5t52 -21l439 -439q21 -22 21 -52t-21 -52l-439 -439q-22 -21 -52 -21z" />
    <glyph glyph-name="uniE613" unicode="&#xe613;" 
d="M512 812q-139 0 -257 -68.5t-186.5 -186.5t-68.5 -257t68.5 -257t186.5 -186.5t257 -68.5t257 68.5t186.5 186.5t68.5 257t-68.5 257t-186.5 186.5t-257 68.5zM685 217q9 -9 14 -20.5t5 -24.5q0 -26 -19 -45t-45 -19q-4 0 -7.5 0.5t-6.5 1.5l-8 2q-3 1 -6 2.5t-6 3.5
l-6 4q-3 2 -5 5l-83 83l-83 -83q-9 -9 -20.5 -14t-24.5 -5q-27 0 -45.5 19t-18.5 45.5t19 44.5l82 83l-82 83q-19 19 -19 45q0 17 8.5 32t23.5 23.5t32 8.5q26 0 45 -19l83 -82l83 82q3 4 7 7t8.5 5t9 3.5t10 2.5t10.5 1q26 0 45 -18.5t19 -45.5q0 -7 -1.5 -13t-3.5 -12
t-5.5 -11t-8.5 -9l-83 -83z" />
    <glyph glyph-name="uniE614" unicode="&#xe614;" 
d="M138 51q-12 0 -21 -9t-9 -22t9 -22t22 -9q4 0 11 -0.5t26 -5.5t37.5 -13t43.5 -25t46 -41q10 -10 23 -10q12 0 21 8q5 5 7.5 10.5t3 11.5t-2 11.5t-6.5 10.5q-26 29 -57 50.5t-54.5 31.5t-48 16t-34 6.5t-16.5 0.5h-1v0zM857 50q-4 -2 -17 0t-40.5 -4t-56 -14.5t-64 -31
t-64.5 -54.5q-6 -6 -8 -14t0.5 -16t8.5 -14q5 -4 10.5 -6t10.5 -2q14 1 23 10q24 25 52 43.5t51 25.5t44.5 11.5t31.5 3.5t14 0q13 -1 22.5 7.5t10.5 21.5q1 8 -3 15.5t-10.5 12t-15.5 5.5v0zM914 265q-7 17 -17.5 35t-22 33t-25.5 31t-26 28.5t-27 26.5q58 42 86 108
q3 9 1 19t-10 17q-49 40 -118 72t-145 50t-145 18q-59 0 -107 -12.5t-85 -37t-60 -60.5q-8 -10 -17 -28.5t-19 -47.5q0 -2 -1 -5q-10 -38 -4 -80v-2l-1 -1q0 -9 1 -22.5t7 -50.5t16.5 -74.5t32.5 -90.5t51.5 -103t77 -108t106.5 -108q8 -8 20 -8q14 0 23 11q9 10 8 23
t-11 21q-86 74 -141 157t-86 166q74 -75 176.5 -127t190.5 -64h2h2q17 0 26 14q47 74 38 139h11h10q43 0 84.5 5t55.5 8.5t22 6.5q13 4 19 16.5t1 24.5v0zM914 265z" />
    <glyph glyph-name="uniE615" unicode="&#xe615;" 
d="M138 51q-12 0 -21 -9.5t-9 -21.5q0 -7 2.5 -12.5t6.5 -10t9.5 -6.5t12.5 -3q4 0 11 -0.5t26 -5t37.5 -12.5t43.5 -25.5t47 -41.5q9 -10 22 -10q4 0 8 1t7.5 3t5.5 4q10 9 10.5 22t-8.5 22q-26 29 -57 50.5t-54.5 31.5t-48 16t-34 6.5t-16.5 1.5h-1zM858 49q-16 2 -43 0
t-90 -27.5t-110 -75.5q-9 -10 -8.5 -23t10.5 -21q3 -3 6.5 -5t7 -3t7.5 -1q13 0 23 10q17 19 36.5 33.5t37.5 23t36 15t31.5 8.5t25.5 3.5t18 0.5t8 0q12 -1 22 7.5t11 21.5t-7.5 22.5t-21.5 10.5zM915 265q-28 68 -118 153q58 43 85 109q9 21 -8 35q-75 62 -189 101.5
t-220 39.5q-180 0 -252 -110v-1q-17 -22 -36 -76l-1 -4q-10 -39 -4 -80v-2l-1 -1q0 -6 0.5 -15t3.5 -32.5t8 -48.5t16 -61t25 -71.5t36.5 -78t50.5 -83t67 -84.5t85 -84q3 -2 6.5 -4t7 -2.5t6.5 -0.5q15 0 24 10q3 4 4.5 7.5t2.5 7.5t0.5 8t-2 7.5t-3.5 7t-5 6.5
q-87 75 -142 157.5t-86 166.5q74 -75 176.5 -127.5t190.5 -64.5h4q17 0 27 14q47 75 38 140q10 -1 21 -1q97 0 162 20q13 4 19 16.5t1 25.5zM733 266h-22q-11 0 -22 1l-22 2q-6 0 -12 -2t-11 -6t-8 -10q-9 -19 6 -35q11 -9 8.5 -38.5t-19.5 -62.5q-45 9 -95.5 30t-99.5 50
t-93 68.5t-72 80.5q-26 41 -35 79t1 73v2q11 29 27 59l1 1q54 83 200 83q35 0 73 -5.5t75.5 -15.5t73.5 -23.5t68.5 -30.5t59.5 -36q-14 -25 -35 -45t-49 -34q-14 -8 -16 -24q-1 -7 1.5 -14.5t8.5 -12.5q25 -22 40 -36.5t38 -40.5t37 -48q-51 -9 -107 -9zM733 266z" />
    <glyph glyph-name="uniE616" unicode="&#xe616;" 
d="M881 18q0 -12 -8.5 -20.5t-21.5 -8.5q-5 0 -14.5 -0.5t-35.5 -5.5t-50 -13.5t-54 -26.5t-53 -43q-9 -9 -22 -9q-3 0 -5.5 0.5t-5.5 1t-5 2.5t-5 4q-9 8 -9.5 20.5t8.5 21.5q28 30 64 52.5t66 32.5t60 15.5t43 6.5t19 1q12 0 21 -9t8 -22zM821 210q48 83 58.5 180.5
t-21.5 173.5q-4 8 -11.5 13t-15.5 5h-10q-22 0 -43 -2t-41.5 -6t-40 -10.5t-37.5 -14.5q-53 97 -119 146l-4 3q-13 9 -28 2q-3 -1 -5 -2t-3 -3q-33 -24 -63 -60.5t-57 -84.5q-73 32 -159 32h-9q-19 0 -27 -18q-15 -38 -20.5 -83t-1 -91t19.5 -92.5t39 -86.5
q42 -71 104.5 -114t138.5 -53q2 0 4.5 -0.5t4.5 -0.5h17v-149q0 -12 9 -21t21 -9q6 0 11.5 2.5t9.5 6.5t6.5 9.5t2.5 11.5v149h18q4 0 9 1q76 10 138.5 53t104.5 113zM191 49q-12 -1 -21 -9.5t-8 -21.5q0 -4 1.5 -9t4 -8.5t6.5 -6t8.5 -4t9.5 -1.5t15 -1t36 -5.5t50 -13
t54 -26.5t51 -43q9 -10 23 -10q11 0 20 8t9.5 20.5t-7.5 21.5q-27 31 -63 53t-65.5 32.5t-60 16t-44 6.5t-19.5 1zM191 49z" />
    <glyph glyph-name="uniE617" unicode="&#xe617;" 
d="M421 -109q-3 0 -5.5 0.5t-4.5 1t-4.5 2t-4.5 3t-4 3.5q-16 18 -36 32.5t-38.5 23.5t-38.5 15.5t-35 9.5t-30 5t-20 2h-8q-13 0 -21.5 8.5t-9 21t8.5 21.5t21 9q6 0 19.5 -0.5t44 -6.5t60 -16t65.5 -32.5t63 -52.5q8 -9 7.5 -21.5t-9.5 -20.5t-20 -8zM622 -109
q-12 0 -21 8t-9.5 20.5t8.5 21.5q28 31 64 53t65.5 32t59.5 16t43 6.5t19 0.5q13 0 21.5 -9t8.5 -21t-9 -21t-21 -9v0q-6 0 -15.5 -0.5t-35 -5.5t-50 -13.5t-54.5 -26.5t-52 -42q-9 -10 -22 -10zM569 43h-95q-2 0 -4.5 0.5t-4.5 1.5q-76 9 -138.5 52t-104.5 114
q-48 82 -58.5 179.5t21.5 173.5q8 18 27 18h9q86 0 159 -32q53 97 120 145q3 3 7 5q15 7 29 -2l4 -3q33 -25 62.5 -61t55.5 -85q38 17 78.5 25t84.5 8h9q20 0 27 -18q13 -30 19 -65t5 -72t-7.5 -74t-20 -73.5t-32.5 -68.5q-42 -71 -104.5 -114t-138.5 -52zM479 103h84
q1 0 2 1q74 8 123.5 46.5t80.5 90.5q38 64 48.5 142t-8.5 139q-82 -2 -149 -39q-11 -7 -23.5 -3t-18.5 16q-15 31 -31 56.5t-33 46t-35 36.5q-54 -47 -99 -138q-5 -11 -17.5 -15t-23.5 2q-16 9 -33.5 16t-35.5 11.5t-37 7.5t-39 3q-13 -43 -13 -90.5t14 -97.5t39 -93
q72 -123 203 -137zM521 -135q-12 0 -21 8.5t-9 21.5v178q0 13 9 21.5t21 8.5t21 -8.5t9 -21.5v-178q0 -13 -9 -21.5t-21 -8.5zM521 -135z" />
    <glyph glyph-name="uniE618" unicode="&#xe618;" 
d="M587 131q-3 -3 -8 -7t-19.5 -15.5t-27 -20.5t-26.5 -19t-21 -14q-32 -19 -67 -30q-15 -5 -28 -8t-24.5 -4t-21 -2t-16.5 -1q-2 -1 -4 -1h-11q-13 0 -25.5 1t-24.5 3t-24 6q-34 9 -59.5 27t-40.5 45q-7 14 -11 30t-4 34q1 31 17 56q6 9 12.5 16.5t14 14.5t15.5 13
q26 17 57.5 26.5t63.5 7.5q31 -1 60.5 -7t55.5 -15q27 -8 51 -18q23 -10 45 -19q8 -4 17 -7q5 -2 9.5 -4t9.5 -3q7 8 13.5 17t11.5 17.5t10 16.5q14 25 24 46q3 7 5.5 13.5t4.5 11.5l4 10q5 14 6 20h-308v34h146v79h-202v34h202v64q0 6 7 10t16 5q11 2 24 2h55v-81h208v-34
h-208v-79h165v1v-1q-1 -8 -3 -16t-4 -16.5t-4.5 -17t-5.5 -17.5q-10 -30 -29 -69q-10 -20 -23 -40t-29 -40q18 -9 50 -22.5t120 -42t165 -40.5q21 48 32.5 100t11.5 107q0 82 -25.5 159t-72 139.5t-109 109t-139.5 72t-159 25.5q-103 0 -196.5 -40t-161 -107.5t-107.5 -161
t-40 -196.5t40 -196.5t107.5 -161t161 -107.5t196.5 -40q128 0 237.5 59t179.5 161q-65 14 -140.5 43t-201.5 85v0zM190 153q-1 -71 81 -89q16 -4 30 -4q59 -2 122 36q7 3 15 9t15.5 12t15.5 12.5t14.5 13t12 11t8.5 7.5l4 3q3 3 5 6q-3 1 -5.5 2.5t-5.5 3.5l-6 2l-6 4l-6 2
q-3 2 -5.5 3.5t-5.5 2.5q-90 44 -140 49q-32 3 -58 -2t-41 -15t-25.5 -23.5t-14.5 -25t-4 -20.5v0zM190 153z" />
    <glyph glyph-name="uniE619" unicode="&#xe619;" 
d="M928 268h-832q-13 0 -22.5 9.5t-9.5 22.5t9.5 22.5t22.5 9.5h832q13 0 22.5 -9.5t9.5 -22.5t-9.5 -22.5t-22.5 -9.5zM832 -116h-192q-13 0 -22.5 9.5t-9.5 22.5t9.5 22.5t22.5 9.5h192q13 0 22.5 9.5t9.5 22.5v160q0 13 9.5 22.5t22.5 9.5t22.5 -9.5t9.5 -22.5v-160
q0 -40 -28 -68t-68 -28zM352 -116h-160q-40 0 -68 28t-28 68v160q0 13 9.5 22.5t22.5 9.5t22.5 -9.5t9.5 -22.5v-160q0 -13 9.5 -22.5t22.5 -9.5h160q13 0 22.5 -9.5t9.5 -22.5t-9.5 -22.5t-22.5 -9.5zM128 428q-13 0 -22.5 9.5t-9.5 22.5v160q0 40 28 68t68 28h160
q13 0 22.5 -9.5t9.5 -22.5t-9.5 -22.5t-22.5 -9.5h-160q-13 0 -22.5 -9.5t-9.5 -22.5v-160q0 -13 -9.5 -22.5t-22.5 -9.5zM896 428q-13 0 -22.5 9.5t-9.5 22.5v160q0 13 -9.5 22.5t-22.5 9.5h-192q-13 0 -22.5 9.5t-9.5 22.5t9.5 22.5t22.5 9.5h192q40 0 68 -28t28 -68v-160
q0 -13 -9.5 -22.5t-22.5 -9.5z" />
    <glyph glyph-name="uniE61A" unicode="&#xe61a;" 
d="M920 419l-344 325q-24 22 -53 7l-13 -9q-8 -9 -11 -21.5t0.5 -24t12.5 -20.5l309 -292l-308 -296q-14 -13 -14 -32.5t13 -33.5q7 -7 15.5 -10.5t18.5 -3.5q19 0 32 13l341 328v1l1 1l1 1l1 1q1 1 6 9v1q1 1 1 2q7 13 4.5 28t-13.5 26zM550 350l1 1l1 1q1 1 6 9v1q1 1 1 2
q7 13 4.5 28t-13.5 26l-344 325q-14 13 -33 12.5t-33 -14.5q-8 -9 -11 -21.5t0.5 -24t12.5 -20.5l309 -292l-308 -296q-14 -13 -14 -32.5t13 -33.5q14 -14 34 -14q19 0 32 13l341 328l1 1v1z" />
    <glyph glyph-name="uniE61B" unicode="&#xe61b;" 
d="M512 724q-89 0 -169.5 -35t-139 -93t-93 -139t-34.5 -170q0 -71 22 -137.5t62.5 -120t94 -94t120 -62.5t137.5 -22q59 0 115.5 16t104.5 44t88.5 68t68.5 88t43.5 104.5t15.5 115.5q0 89 -34.5 170t-93 139t-139 93t-169.5 35zM685 157q9 -9 9 -21.5t-9 -21.5t-21.5 -9
t-21.5 9l-130 130l-130 -130q-8 -9 -21 -9t-22 9t-9 21.5t9 21.5l130 130l-130 130q-9 9 -9 21.5t9 21.5q5 5 10.5 7t11.5 2t11.5 -2t9.5 -7l130 -130l130 130q4 5 10 7t11.5 2t11.5 -2t10 -7q9 -9 9 -21.5t-9 -21.5l-130 -130zM685 157z" />
    <glyph glyph-name="uniE61C" unicode="&#xe61c;" 
d="M922 761h-820q-42 0 -72 -30t-30 -73v-563q0 -42 30 -72t72 -30h52v-154l192 154h576q42 0 72 30t30 72v563q0 28 -13.5 51.5t-37.5 37.5t-51 14zM819 216h-614v85h614v-85zM819 440h-614v84h614v-84z" />
    <glyph glyph-name="uniE61D" unicode="&#xe61d;" 
d="M949 154q11 11 11 26.5t-11 26.5l-408 412q-11 11 -27 11q-4 0 -9 -1.5t-9 -4t-8 -5.5v-1h-1l-1 -1l-412 -408q-11 -11 -11 -26.5t11 -26.5t26.5 -11t26.5 11l387 384l382 -386q7 -7 16.5 -9.5t19.5 0t17 9.5z" />
    <glyph glyph-name="uniE61E" unicode="&#xe61e;" 
d="M848 734h-658q-22 0 -38.5 -16t-16.5 -39v-154l55 -55v209h658v-383h-483l246 -247h127v27q0 12 -8 20t-19 8h-137v82h274q23 0 39 16t16 39v55v383q0 23 -16 39t-39 16zM519 213q-7 0 -13.5 4t-10 10t-3.5 13.5t3.5 14t10 10t13.5 3.5t13.5 -3.5t10 -10t3.5 -13.5
q0 -12 -8 -20t-19 -8z" />
    <glyph glyph-name="uniE61F" unicode="&#xe61f;" 
d="M514 842q95 0 178.5 -36.5t146 -98.5t98.5 -145.5t36 -178.5t-36 -178t-98.5 -145.5t-146 -98.5t-178.5 -36t-178 36t-145.5 98.5t-98.5 145.5t-36 178t36 178.5t98.5 145.5t145.5 98.5t178 36.5zM515 70q27 0 45 17.5t18 43.5q0 27 -18 45t-45 18t-44.5 -18t-17.5 -45
q0 -26 17.5 -43.5t44.5 -17.5zM567 322q-1 16 20.5 34.5t48.5 41t49.5 50.5t24.5 65q2 40 -8.5 75t-34 60t-61 39.5t-87.5 14.5q-62 0 -103.5 -22t-67 -53t-36 -64.5t-9.5 -55.5q1 -27 17 -39t34.5 -12.5t33.5 10t15 31.5q0 12 8 30t21 34.5t32 27.5t43 11q46 0 73.5 -23
t25.5 -58q0 -17 -10 -32t-26 -29t-34 -27.5t-34 -28.5t-26.5 -32.5t-11.5 -37.5l1 -39q0 -15 14.5 -29t37.5 -15q24 1 37.5 15.5t12.5 32.5v25z" />
    <glyph glyph-name="uniE620" unicode="&#xe620;" 
d="M325 -50zM882 -50zM236 -65zM960 -65zM64 23zM958 23zM81 -66zM1023 -66zM35 -39zM644 117q-3 40 -10 64q-5 18 -19.5 33t-35.5 29l-11 7q-3 3 -8.5 8t-8 9t-4.5 10t-2 12q0 8 2 14.5t8 13.5t10 10.5t14.5 12.5t22.5 23t23 30q15 21 15 40h-259q3 -23 13 -39
q15 -23 50 -52q13 -11 19 -16.5t11.5 -15t5.5 -20.5q0 -3 -0.5 -6.5t-2 -6.5t-2.5 -5.5t-4 -5.5l-5 -4q-1 -2 -5 -5t-5 -4t-6 -4.5t-6 -4.5q-21 -12 -37 -28t-20 -35q-1 -3 -2 -5.5t-2 -6t-1.5 -6.5t-1 -8t-0.5 -9.5t-1 -13t-1 -15.5h266zM265 76q0 5 0.5 9.5t1.5 9t2.5 7.5
t4 6t5.5 5t7 3t9 1h20q1 19 3.5 33t5.5 26.5t4 18.5q4 23 19.5 44t27 29.5t31.5 23.5q0 2 -2 2q-37 27 -60 59q-32 46 -34 124h-15q-30 0 -30 53v5q0 32 41 32h412q43 0 43 -32v-5q0 -21 -8 -37t-24 -16h-16q-4 -41 -11.5 -71t-23.5 -53q-9 -13 -19 -23.5t-23.5 -23
t-15.5 -13.5t-2.5 -0.5t-0.5 -0.5q2 -2 19.5 -17.5t23.5 -21.5t17 -22.5t17 -35.5q1 -6 2.5 -13t2.5 -12.5t2.5 -12.5t2.5 -17.5t2 -22.5h23q16 0 24 -11t8 -30v-7q0 -19 -8 -31.5t-24 -12.5h-434q-30 0 -30 44v7zM65 301q0 -187 131 -318q130 -130 316.5 -130t316.5 130
q131 131 131 318q0 185 -131 316q-130 131 -316.5 131t-316.5 -131q-131 -131 -131 -316zM990 -39z" />
    <glyph glyph-name="uniE621" unicode="&#xe621;" 
d="M325 -50zM882 -50zM236 -65zM960 -65zM64 23zM958 23zM81 -66zM1023 -66zM37 -38zM481 512q0 29 21 50t51 21t51 -21t21 -50t-21 -50.5t-51 -21.5q-20 0 -36.5 10t-26 26.5t-9.5 35.5zM446 31q-58 8 -51 77q4 45 37 111q10 19 17 40t9 40.5t-5 32.5t-24 13q-8 0 -7 4
q0 4 13 11q62 33 102 28q30 -3 46 -24.5t15.5 -50.5t-15.5 -57q-24 -47 -38 -90t-7 -60q10 -21 66 -21q15 0 12 -6l-3 -3q-9 -9 -22 -17t-35.5 -17.5t-48 -11.5t-61.5 1zM67 301q0 -186 130 -317q131 -130 317 -130t316 130q131 131 131 317t-131 316q-130 131 -316 131
t-317 -131q-66 -66 -98 -144t-32 -172zM990 -38z" />
    <glyph glyph-name="uniE622" unicode="&#xe622;" 
d="M517 146v27q0 17 -9 24.5t-30 7.5q-9 0 -14 -0.5t-7 -2.5q-3 -2 -7 -10q3 0 5 0.5t4.5 1t4.5 1t4 0.5h5q6 0 10.5 -1t7 -3.5t4 -5.5t1.5 -8v-5q-7 9 -21 9q-15 0 -23.5 -7.5t-8.5 -21.5q0 -5 1.5 -9.5t4 -8t6 -6t8 -4t9.5 -1.5q16 0 24 11q1 -1 1 -2t1.5 -3t4.5 -3v0h1
l1 -1h1q2 -1 5 -1q15 0 15 12q-8 0 -8 8q-1 1 -1 2zM481 136q-14 0 -14 17q0 4 1 7t3 5.5t4.5 3.5t6.5 1q2 0 4.5 -1t4 -2t3 -3t2 -5t0.5 -6q0 -8 -4 -12.5t-11 -4.5zM291.5 206q-18.5 0 -29 -11t-10.5 -30.5t10.5 -30.5t29 -11t29.5 11t11 30.5t-11 30.5t-29.5 11z
M291.5 135q-15.5 0 -15.5 29.5t15.5 29.5t15.5 -29.5t-15.5 -29.5zM394 205q-15 0 -22 -9v18v7v1v1l-2 4v1q-1 0 -1 1q-1 0 -1 1h-1q-1 2 -4 3t-8 1q-4 0 -7.5 -1.5t-4.5 -2.5l-1 -1q-2 -3 -3 -7q10 0 10 -11v-65q0 -10 -9 -10l1 -1v0q0 -2 0.5 -3t2 -3t3.5 -3t4 -1
q2 -1 4 -1q13 1 15 10q9 -11 24 -11q10 0 18 5t13 14.5t5 22.5q0 19 -9.5 29.5t-26.5 10.5zM388 136q-17 0 -17 25v8q0 5 1 9t2 7t3.5 5t5 3t5.5 1q17 0 17 -30q0 -28 -17 -28zM574.5 206q-18.5 0 -29 -11t-10.5 -31q0 -9 2.5 -17t8 -13t13 -8t16.5 -3q18 0 29 11t11 30.5
t-11 30.5t-29.5 11zM575 135q-15 2 -16 29q0 30 15.5 30t15.5 -29.5t-15 -29.5zM704 195q4 0 7 -1.5t5 -4.5q3 -4 7 -4q10 -1 10 12q-1 1 -4 2.5t-10.5 4t-15.5 2.5q-19 0 -31 -11.5t-12 -30.5t11.5 -30t30.5 -11q6 0 11.5 1.5t10.5 4.5t9 7q-5 4 -9 4q-2 0 -6 -2l-12 -2
q-22 0 -22 31q0 13 5.5 20.5t14.5 7.5zM784 206q-12 0 -21 -5t-14 -14.5t-5 -22.5q0 -19 11 -30t29 -11q8 0 14 2t11 5.5t8.5 8.5t5.5 11.5t2 13.5q0 10 -3 17.5t-8 13t-12.5 8.5t-17.5 3zM784 135q-5 0 -8.5 3.5t-5 10t-1.5 15.5q0 30 15 30q3 0 5 -1t4 -2.5t3 -4t2 -6
t1.5 -7.5t0.5 -9q0 -29 -16 -29zM638 146q-5 0 -8 -3.5t-3 -7.5t1.5 -6.5t4 -4t5.5 -1.5q10 2 11 12q0 4 -3 7.5t-8 3.5zM172 226q-1 -1 -2.5 -1t-3.5 -0.5t-4 -0.5h-6q-2 0 -5.5 -0.5t-6.5 -0.5h-7q-9 0 -18 0.5t-15 0.5h-9q-15 0 -20 -15q4 2 10 2.5t15 0.5q6 0 8 -1.5
t2 -5.5v-32v-33q0 -5 2 -8.5t6 -5.5q1 -1 3 -1l5 -1q5 0 8.5 1.5t5.5 3t3 3.5t2 3v1q-6 0 -8 2.5t-2 8.5v58q0 3 1 4.5t3 1.5h7h4h2q5 0 7.5 0.5t5 2.5t4 4.5t3.5 7.5zM962 146v31q0 15 -7 22t-21 7q-3 0 -5.5 -0.5t-5.5 -1.5t-5 -2l-4 -4q-2 -1 -4 -3q-1 2 -2.5 3.5t-3 2.5
t-3.5 2t-4.5 1.5t-4.5 1t-5 0.5q-15 0 -23 -9q-2 7 -15 7h-4q-2 0 -3 -0.5t-2 -1.5l-4 -3v0q-2 -3 -3 -6q3 0 5 -1t3 -2t1.5 -3t0.5 -5v-57h22v51q0 18 14 18q12 0 12 -15v-54h22v51q0 18 14 18q7 0 9.5 -3.5t2.5 -11.5v-38q0 -2 1 -4v-1v-1v-1h1v-1v-1v0q1 -2 2 -2v-1h1v-1
v0h1v-1h1v-1h1q1 -1 3.5 -1.5t4.5 -0.5q6 0 10 3t5 6v3q-5 0 -6.5 2.5t-1.5 7.5zM234 146v27q0 6 -0.5 10.5t-2.5 8t-5.5 6t-7.5 4.5t-10 2.5t-13 0.5q-9 0 -14 -0.5t-7 -2.5q-2 -1 -3.5 -3.5t-3.5 -6.5q12 3 23 3q12 0 17.5 -4.5t5.5 -13.5q0 -2 -1 -5q-7 9 -20 9
q-8 0 -13.5 -2t-9.5 -5.5t-6.5 -9t-2.5 -12.5q0 -8 3.5 -14.5t10.5 -10.5t15 -4t14 3t10 8q0 -1 0.5 -2t2 -3t4.5 -3v0q1 0 2 -1h1q2 -1 5 -1q6 0 10 3t4 6l1 3q-8 2 -9 10zM198 136q-15 0 -15 17q0 8 4.5 12.5t11.5 4.5q4 0 7 -2t5 -6t2 -9q0 -17 -15 -17zM83 438l-17 -26
l31 -19q3 -1 5.5 -3t7 -10t-1.5 -17q-2 -4 -6 -9t-9 -10.5t-10.5 -11.5t-10.5 -11l-9 -9q-4 -4 -7 -6l-2 -3l40 -25q9 19 16 33.5t9 18.5l4 10q2 4 4 12q12 37 -3 52q-12 12 -17.5 16.5t-23.5 17.5zM187 471q3 5 5 9.5t3 6.5l1 2l-37 11q-2 -6 -5 -14.5t-14 -28t-23 -29.5
q2 -1 4.5 -2.5t8.5 -5t10 -5.5l3 -2q5 6 10 11.5t10 11.5q9 3 17 7q-16 -29 -29 -43l16 -13l22 22h13v-23h-52v-18h52v-44h-2q-14 1 -18 7q-2 3 -2 7.5t0.5 11t0.5 8.5h-36l-1 -1q0 -2 -1 -6t-0.5 -14t4 -18t12.5 -14t23 -5q56 -2 88 23l5 -20l30 13l-20 48l-24 -7l4 -17
q-2 -1 -5 -2l-4 -4q-3 -1 -5.5 -2t-5.5 -2v38h50v18h-50v23h50v18h-90q5 7 8.5 12t4.5 8l-16 4q106 38 105 -19v-105l1 -3q0 -4 -2 -9t-5 -10t-11 -8.5t-20 -2.5l-22 5l-5 -21q4 -1 10.5 -2.5t23.5 -2.5t30 2.5t25 16t14 32.5q2 15 3 30t0.5 26.5t-1 22t-1 18t-1 13
t-1.5 8.5l-1 3v3q0 1 -2 5t-5 8t-9 8.5t-14 8t-20 5.5t-27 1.5t-35.5 -3.5t-44.5 -10zM614 407v5l11 -11q5 3 11 7.5t16 17t10 23.5l-2 8q-1 4 -2.5 6.5t-4.5 5t-6 4t-7 3t-8.5 2.5t-9.5 2h-12q-5 1 -12 2q-15 0 -56 -3v16h-47v-21q-30 -3 -63 -7v8h-42v-73h42v5h63v-23h-73
v-20h73v-56h-105v-25h264v25h-111v56h82v20h-82v23h71zM432 443q36 9 98.5 16t76.5 0q8 -3 9.5 -8t-1 -9t-6.5 -7.5t-7 -5.5l-4 -2h1h-167v16zM964 438q-1 7 -3.5 14t-9.5 16.5t-23 16.5t-39 9q-60 6 -145 -28v17h-46v-199h46v71l12 -12q1 0 2 1l4 4l8 6l8 8t10 9l15 -23
l25 26q-4 9 -16 20q7 8 13 15q11 -9 25 -25q-12 -16 -26.5 -28.5t-22.5 -17.5l-8 -4l14 -20q16 8 31 20.5t30 27.5l4 -6q2 -3 3.5 -5t3 -4.5t2.5 -4t2 -2.5t1 -2l1 -1l32 28q-5 8 -26 25q16 19 28 39q1 -19 0.5 -54t-1.5 -52q-1 -11 -5.5 -16t-10 -5t-11.5 1.5t-9 3.5l-4 2
l-2 -20l26 -11q9 -3 18 -4q7 -3 13 -1t10 2.5t7.5 5.5t5.5 7t3.5 8.5t2.5 10t1.5 11t0.5 10.5v10v9q2 61 0 91zM882 459q-6 -27 -18 -50q-13 9 -27 17q4 7 5 12l-35 18q-7 -20 -19 -41l-28 19l-13 -16q10 -6 26 -26q-14 -19 -29 -27v74q20 9 44.5 17.5t49.5 13.5t43 6
q10 1 17.5 -1t11.5 -5.5t6 -7.5l2 -13v-3q0 -1 0.5 -2.5t0.5 -3.5v-3zM105 448q11 0 19 7t8 16.5t-8 16.5t-19 7q-5 0 -10 -1.5t-8.5 -5t-5.5 -8t-2 -8.5q0 -18 18 -23q5 -1 8 -1zM567 336q-1 11 -13 11q-5 0 -9 -3.5t-4 -8.5q0 -2 1 -4t2.5 -4t4 -2.5t5.5 -0.5q12 0 13 10
v2z" />
    <glyph glyph-name="uniE623" unicode="&#xe623;" horiz-adv-x="1000" 
d="M607 -57l312 313q18 18 18 44t-18 44l-312 313q-19 18 -44.5 18t-44 -18.5t-18.5 -44t18 -44.5l206 -206h-599q-26 0 -44.5 -18t-18.5 -44q0 -17 8.5 -31.5t23 -22.5t31.5 -8h599l-206 -206q-18 -19 -18 -44.5t18.5 -44t44 -18.5t44.5 18z" />
    <glyph glyph-name="uniE624" unicode="&#xe624;" horiz-adv-x="2196" 
d="M1085 324q0 -14 4 -19t18 -5q-2 -10 -5 -14q-4 -6 -12 -10t-20 -4q-4 0 -12 2h-2h-1l-3 2h-1q0 1 -1 1q-5 3 -8 5.5t-5 6.5l-3 6q-13 -15 -37 -23q-5 -1 -11 -2t-11 -1q-32 0 -52 19.5t-20 51.5q0 13 3.5 24t10 19.5t16 14.5t22 9t26.5 3h9q2 0 7 -1q11 -2 20 -7t14 -13
q1 2 1 10q0 38 -35 44q-7 1 -20 1q-22 0 -56 -7q12 22 17 25q4 4 17 6t34 2h8q33 -1 52 -9.5t27.5 -25.5t8.5 -44v-67zM997 298q11 0 19 5t12.5 15t4.5 24q0 41 -35 41h-1q-16 -1 -26 -11.5t-10 -30.5q0 -13 4.5 -22.5t13 -15t18.5 -5.5zM532 471q46 0 72.5 -27t26.5 -76
q0 -46 -26.5 -72.5t-72.5 -26.5q-31 0 -53 12t-33.5 34t-11.5 53q0 49 25.5 76t72.5 27zM532 298q26 0 34 33v1v1l1 1v1v1v1v1l1 1v1v1v1v1v1v1l1 1v1v1v1v1v1v1v1v1v1v1v1v1l1 1v9q0 37 -9.5 54.5t-28.5 18.5q-38 0 -38 -73v-2v-1v-2v-2v-2v-2v-2v-2l1 -2v-2v-2v-2v-2l1 -2
v-2v-2l1 -2v-2l1 -2q8 -33 34 -33zM784 469q39 0 63 -26t24 -71q0 -49 -24 -76t-63 -27q-3 0 -5.5 0.5t-3.5 0.5t-3.5 0.5t-3.5 0.5q-13 3 -24 8.5t-19 15.5q-1 -4 -3 -6.5t-4 -4.5q-10 -12 -30 -12q-7 0 -10 1q-18 4 -26 24v1v2q10 -1 14.5 3.5t5 8.5t0.5 12v160
q0 15 -4 21t-18 7q0 7 6 15l7 7q3 2 5.5 3.5t7.5 2.5t10 1q6 0 11.5 -0.5t10.5 -3.5q2 0 4.5 -1.5t5.5 -4.5l1 -1l1 -1l1 -1l1 -1l1 -2v-1l1 -1q3 -6 4 -11v-1v-3v-18v-44q14 17 40 22q3 1 16 1zM769 299q41 0 41 68q0 37 -10.5 55.5t-31.5 19.5h-1q-18 0 -29.5 -16
t-11.5 -45v-20q0 -19 5.5 -33t15 -21.5t21.5 -7.5h1zM1226 471q46 0 72.5 -27t26.5 -76q0 -46 -26.5 -72.5t-72.5 -26.5t-72 26.5t-26 72.5q0 49 25.5 76t72.5 27zM1226 298q27 0 35 35v1l1 1v1v1v1v1v1h1v1v1v1v1v1v1v1l1 1v1v1v1v1v1v1v1v1v1v1v1v1v1v1v1v1l1 1v3
q0 36 -10 54t-29 19q-38 0 -38 -73v-2v-1v-2v-2v-2v-2v-2v-2v-2l1 -2v-2v-2v-2l1 -2v-2v-2l1 -2v-2l1 -2q8 -33 34 -33zM1542 444q-21 0 -33.5 -18t-12.5 -51q0 -36 14.5 -56t38.5 -20q8 0 17 2.5t16 4.5t11 2q12 0 20 -10q-28 -29 -74 -29q-47 0 -75.5 27t-28.5 72
q0 31 13.5 54t37.5 36t55 13q14 0 27 -3t25 -7l22 -11q0 -32 -25 -30q-2 0 -4 0.5t-4 1.5t-3.5 2t-3 2.5t-2.5 3.5q-12 14 -31 14zM1740 471q47 0 73 -27t26 -76q0 -31 -12 -53t-34 -34t-52.5 -12t-52.5 12t-34 34t-12 53q0 25 7 44t19.5 32t30.5 20t41 7zM1740 298
q27 0 35 33v1v1v1v1h1v1v1v1v1v1v1l1 1v1v1v1v1v1v1v1v1l1 1v1v1v1v1v1v1v1v1v9q0 37 -9.5 55t-28.5 18q-37 0 -37 -73v-2v-1v-2v-2v-2v-2v-2v-2v-2v-2l1 -2v-2v-2v-2l1 -2v-2v-2l1 -2v-2q8 -33 34 -33zM1381 324q8 0 14.5 -3.5t10 -10t3.5 -14t-3.5 -13.5t-10 -10t-14.5 -4
q-7 0 -13.5 4t-10 10t-3.5 14q0 11 8 19t19 8zM239 520q-8 -22 -17.5 -29t-31.5 -7h-15h-11q-3 0 -7 -1t-5 -2.5t-2 -4.5t-1 -7v-141q0 -16 4.5 -21.5t18.5 -6.5q-3 -7 -9 -14q-13 -14 -36 -14q-4 0 -14 2q-1 0 -7 2q-20 10 -20 33v1v79v81q0 16 -23 16q-43 0 -62 -6
q6 21 17 28.5t33 7.5q4 0 38 -1t64 -1q68 0 86 6zM2174 326q0 -11 1 -15.5t5.5 -7.5t14.5 -3q-2 -10 -5 -14q-5 -7 -12 -10.5t-19 -3.5q-2 0 -4.5 0.5t-4.5 1.5h-4l-4 2q-2 0 -4 1h-1l-1 1h-1h-1l-2 2v2l-1 1l-1 1q-1 1 -1 2q-3 3 -4 5h-1v2q-1 0 -1 1v2v1v1q-1 1 -1 2v1v1
q-1 2 -1 7v2v94q0 19 -7.5 28t-22.5 9q-7 0 -13 -1.5t-10 -5t-6.5 -9t-3.5 -12.5t-1 -17v-124h-55v132q0 37 -29 37q-34 0 -34 -45v-124h-55v138q0 11 -2 16.5t-7 8.5t-15 3q2 9 7 14l2 3l1 2q1 0 3 1.5t3 2.5q8 6 22 6q20 0 31 -10q4 -5 6 -10q7 8 16 13t19 7.5t21 2.5
q39 0 57 -27q11 13 26 20t34 7q66 0 66 -72v-73zM392 324q0 -14 3 -19t17 -5q-2 -10 -5 -14q-4 -7 -11.5 -10.5t-19.5 -3.5q-6 0 -12 2h-3l-4 2h-1v1q-9 6 -12 12l-4 6q-13 -16 -36 -23q-13 -3 -23 -3q-21 0 -37 9t-25.5 25t-9.5 37q0 33 21 51.5t56 18.5q10 0 18 -1
q21 -4 33 -20q1 1 1 3v7q0 38 -34 44q-8 1 -21 1q-22 0 -56 -7q2 4 5.5 10.5t5.5 9.5t5 5t10 4t17.5 3t23.5 1h10q32 -1 51.5 -9.5t28 -25.5t8.5 -44v-67zM304 298q17 0 25.5 11t8.5 33q0 41 -34 41q-6 0 -11 -1.5t-9.5 -4t-7.5 -6t-5 -8t-3 -10t-1 -12.5q0 -6 1 -12
t3.5 -10.5t5.5 -8.5t7.5 -6.5t9 -4t10.5 -1.5z" />
    <glyph glyph-name="uniE625" unicode="&#xe625;" 
d="M891 735q-62 1 -118 12t-94 26.5t-72 36t-51.5 35.5t-32.5 31q-14 16 -33 -1q-19 -20 -45 -40t-70.5 -44t-110 -39.5t-140.5 -16.5q-2 -6 -5 -18.5t-8.5 -52.5t-7.5 -80.5t3 -100t18.5 -116t43 -123t72 -125.5t110 -120t152.5 -110h3q89 51 160 114q7 6 18.5 16t46 48.5
t67.5 82.5q40 58 66.5 121.5t38 117.5t14.5 110t0 94.5t-9.5 75.5t-10 48.5t-5.5 17.5zM245 653q-10 -3 -21 -5.5t-22 -4.5q-6 -29 -7 -62t6 -97q1 -9 -4 -16t-13 -8q-1 0 -2 -0.5t-2 -0.5q-7 0 -13 5t-7 13q-5 30 -6.5 60.5t0 51.5t4 41t4 27t2.5 11q4 14 18 15q1 0 8.5 1
t19.5 4l23 4q5 2 10.5 1t9.5 -5t6 -9q1 -4 1 -7t-1 -6t-3 -5.5t-5 -4.5t-6 -3z" />
    <glyph glyph-name="uniE626" unicode="&#xe626;" 
d="M862 748h-474v-240l92 -92h382v332zM862 748zM941 896h-632q-22 0 -41 -11t-30 -30t-11 -41v-146l57 -57v227h684v-512h-398l225 -226h86q8 0 14.5 3.5t10 10t3.5 14.5t-3.5 14.5t-10 10t-14.5 3.5h-142v114h202q17 0 32 6.5t26 17.5t17.5 26t6.5 32v462q0 34 -24 58
t-58 24zM941 896z" />
    <glyph glyph-name="uniE627" unicode="&#xe627;" 
d="M949 619q-11 11 -26.5 11t-26.5 -11l-382 -386l-387 384q-8 7 -17.5 9.5t-19 0t-16.5 -9.5q-11 -11 -11 -26.5t11 -26.5l412 -408h1l1 -1v-1q11 -11 26 -11q16 0 27 11l408 412q11 11 11 26.5t-11 26.5z" />
    <glyph glyph-name="uniE628" unicode="&#xe628;" 
d="M1024 -128v79h-79zM1024 -128zM276 817v-197l78 -78v354h-354l79 -79h197zM276 817zM945 266h-275v-40l78 -78v39h79v-79h-39l157 -157v79h79v78v79h-79v79zM945 266zM236 660v118h-118zM236 660zM433 896h79v-79h-79v79zM433 896zM670 896v-354h354v354h-354zM945 620
h-197v197h197v-197zM945 620zM788 778h118v-118h-118v118zM788 778zM591 463v118h-79v-118h-79l79 -79h79v-79h118v79h79v79h-197zM591 463zM591 660v157h-79v-79h-79v-157h79v79h79zM591 660zM945 463h-79v-79h-78v-79h236v79h-79v79zM945 463z" />
  </font>
</defs>
</svg>
